<?xml version="1.0" standalone="no"?>
<!DOCTYPE svg PUBLIC "-//W3C//DTD SVG 1.1//EN" "http://www.w3.org/Graphics/SVG/1.1/DTD/svg11.dtd">
<svg xmlns="http://www.w3.org/2000/svg">
<metadata>Copyright (C) 2025 by original authors @ fontello.com</metadata>
<defs>
<font id="fontello" horiz-adv-x="1000" >
<font-face font-family="fontello" font-weight="400" font-stretch="normal" units-per-em="1000" ascent="850" descent="-150" />
<missing-glyph horiz-adv-x="1000" />
<glyph glyph-name="arrow-long-right" unicode="&#xe800;" d="M1340-150l538 500-538 500-114-124 314-292h-1540v-169h1540l-314-293 114-124z" horiz-adv-x="1878" />

<glyph glyph-name="arrow-long-left" unicode="&#xe801;" d="M538 850l-538-500 538-500 115 124-315 292h1540v170h-1540l315 292-115 124z" horiz-adv-x="1878" />

<glyph glyph-name="down" unicode="&#xe802;" d="M0 283q0 25 18 43t44 18 42-18l244-243v642q0 25 18 43t43 18 43-18 18-43v-642l243 243q18 18 43 18t43-18q18-18 18-43t-18-44l-390-390-391 390q-18 20-18 44z" horiz-adv-x="817.4" />

<glyph glyph-name="left" unicode="&#xe803;" d="M0 353l390 391q19 18 44 18 25 0 43-18t18-44-18-43l-243-243h642q25 0 43-18t18-43-18-43-43-18h-642l243-243q18-18 18-44t-18-43-43-18-44 18z" horiz-adv-x="938" />

<glyph glyph-name="right" unicode="&#xe804;" d="M0 347q0 26 18 43t43 17h642l-242 244q-19 18-19 44t19 42q17 19 42 19t44-19l390-390-390-391q-20-18-44-18t-42 18-19 44 19 43l242 242h-642q-25 0-43 18t-18 44z" horiz-adv-x="938" />

<glyph glyph-name="up" unicode="&#xe805;" d="M0 354q0 26 18 44l391 390 390-390q18-18 18-44 0-26-18-43-18-18-43-18t-43 18l-243 243v-642q0-25-18-43t-43-18q-26 0-44 18t-17 43v642l-244-243q-18-18-43-18t-43 18q-18 17-18 43z" horiz-adv-x="817.4" />

<glyph glyph-name="down-1" unicode="&#xe806;" d="M0 283q0 25 18 43t44 18 42-18l244-243v642q0 25 18 43t43 18 43-18 18-43v-642l243 243q18 18 43 18t43-18q18-18 18-43t-18-44l-390-390-391 390q-18 20-18 44z" horiz-adv-x="817.4" />

<glyph glyph-name="left-1" unicode="&#xe807;" d="M0 353l390 391q19 18 44 18 25 0 43-18t18-44-18-43l-243-243h642q25 0 43-18t18-43-18-43-43-18h-642l243-243q18-18 18-44t-18-43-43-18-44 18z" horiz-adv-x="938" />

<glyph glyph-name="down-open-big" unicode="&#xe808;" d="M63 570l370-356 372 356q22 26 48 0 26-22 0-48l-396-392q-22-22-48 0l-396 392q-26 26 0 48 24 24 50 0z" horiz-adv-x="866" />

<glyph glyph-name="up-open-big" unicode="&#xe809;" d="M804 130l-372 358-370-358q-26-22-50 0-24 24 0 50l396 390q26 26 48 0l396-390q24-26 0-50-26-22-48 0z" horiz-adv-x="864" />

<glyph glyph-name="right-open-big" unicode="&#xe80a;" d="M13-20l358 370-358 372q-26 26 0 48 26 26 48 0l392-394q24-26 0-50l-392-394q-22-26-48 0-26 22 0 48z" horiz-adv-x="465" />

<glyph glyph-name="left-open-big" unicode="&#xe80b;" d="M452-20q26-26 0-48-26-26-48 0l-392 394q-24 24 0 50l392 394q22 26 48 0 26-22 0-48l-358-372z" horiz-adv-x="465" />

<glyph glyph-name="picture" unicode="&#xe80c;" d="M357 529q0-45-31-76t-76-32-76 32-31 76 31 76 76 31 76-31 31-76z m572-215v-250h-786v107l178 179 90-89 285 285z m53 393h-893q-7 0-12-5t-6-13v-678q0-7 6-13t12-5h893q7 0 13 5t5 13v678q0 8-5 13t-13 5z m89-18v-678q0-37-26-63t-63-27h-893q-36 0-63 27t-26 63v678q0 37 26 63t63 27h893q37 0 63-27t26-63z" horiz-adv-x="1071.4" />

<glyph glyph-name="videocam" unicode="&#xe80d;" d="M1000 654v-608q0-23-22-32-7-3-14-3-15 0-25 10l-225 225v-92q0-67-47-114t-113-47h-393q-67 0-114 47t-47 114v392q0 67 47 114t114 47h393q66 0 113-47t47-114v-92l225 225q10 10 25 10 7 0 14-2 22-10 22-33z" horiz-adv-x="1000" />

<glyph glyph-name="play" unicode="&#xe80e;" d="M772 333l-741-412q-13-7-22-2t-9 20v822q0 14 9 20t22-2l741-412q13-7 13-17t-13-17z" horiz-adv-x="785.7" />

<glyph glyph-name="right-1" unicode="&#xe80f;" d="M0 347q0 26 18 43t43 17h642l-242 244q-19 18-19 44t19 42q17 19 42 19t44-19l390-390-390-391q-20-18-44-18t-42 18-19 44 19 43l242 242h-642q-25 0-43 18t-18 44z" horiz-adv-x="938" />

<glyph glyph-name="up-1" unicode="&#xe810;" d="M0 354q0 26 18 44l391 390 390-390q18-18 18-44 0-26-18-43-18-18-43-18t-43 18l-243 243v-642q0-25-18-43t-43-18q-26 0-44 18t-17 43v642l-244-243q-18-18-43-18t-43 18q-18 17-18 43z" horiz-adv-x="817.4" />

<glyph glyph-name="link" unicode="&#xe811;" d="M500 850c-276 0-500-224-500-500s224-500 500-500 500 224 500 500-224 500-500 500z m-49-755c-57-57-147-57-204 0-58 58-58 147 0 205l100 100 50-50-100-100c-29-29-25-76 0-101 29-25 72-25 100 0l101 101 3-4 50-50-100-100z m4 155c-15-15-36-15-50 0-15 14-15 36 0 50l150 150c14 15 36 15 50 0 15-14 15-35 0-50l-150-150z m305 150l-97-100-47 50-3 4 97 100c25 29 25 72 0 100-26 26-69 29-97 0l-97-100-47 50 97 101c54 57 140 57 194 0s54-148 0-205z" horiz-adv-x="1000" />

<glyph glyph-name="facebook" unicode="&#xe812;" d="M498-150l1 0-1 0 0 0z m4 0l0 0 0 0 0 0z m-5 0l0 0 0 0 0 0z m6 0l0 0 0 0 0 0z m-8 0l0 0 0 0 0 0z m10 0l0 0 0 0 0 0z m2 0l-1 0 1 0 0 0z m-14 0l1 0 0 0-1 0z m15 0l0 0 0 0 0 0z m-16 0l0 0 0 0 0 0z m18 0l-1 0 1 0 0 0z m-20 0l1 0-1 0 0 0z m-2 0l1 0 0 0-1 0z m23 0l0 0 1 0-1 0z m-24 0l0 0 0 0 0 0z m26 0l0 0 0 0 0 0z m2 0l-1 0 1 0 0 0z m-30 0l1 0 0 0-1 0z m-1 0l0 0 0 0 0 0 0 0z m32 0l0 0 0 0 1 0-1 0z m2 0l0 0 0 0 0 0z m-36 0l1 0-1 0 0 0z m-2 0l1 0 0 0-1 0z m39 0l0 0 1 0-1 0z m-40 0l1 0-1 0 0 0z m42 0l-1 0 1 0 0 0z m-44 0l1 0 0 0-1 0z m46 0l-1 0 1 0 0 0z m-47 1l0 0 0 0 0 0z m48 0l0 0 1 0-1 0z m-50 0l1 0-1 0 0 0z m52 0l-1 0 1 0 0 0z m1 0l0 0 0 0 1 0-1 0z m-54 0l0 0 0 0-1 0 1 0z m56 0l0 0 0 0 0 0z m-58 0l0 0 0 0 0 0z m-2 0l1 0 0 0-1 0z m62 0l-1 0 1 0 0 0z m-63 0l1 0-1 0-1 0 1 0z m64 0l-1 0 1 0 1 0-1 0z m2 0l-1 0 1 0 0 0z m-68 0l1 0-1 0 0 0z m-2 0l1 0 0 0-1 0z m71 0l0 0 1 0-1 0z m-72 0l1 0-1 0 0 0z m74 0l-1 0 1 0 0 0z m-76 0l1 0 0 0-1 0z m77 0l0 0 1 0-1 0z m2 1l0 0 0 0 0 0z m-80 0l0 0 0 0 0 0z m-2 0l1 0-1 0 0 0z m84 0l-1 0 1 0 0 0z m-85 0l0 0 0 0 0 0z m86 0l0 0 0 0 0 0z m2 0l0 0 0 0 0 0z m-90 0l0 0 0 0 0 0z m-1 0l0 0 0 0 0 0z m92 0l0 0 1 0-1 0z m-124 4c-239 38-422 245-422 494 0 276 224 500 500 500 276 0 500-224 500-500 0-249-183-456-422-494l0 350 117 0 22 144-139 0 0 94c0 39 20 78 82 78l63 0 0 123c0 0-58 10-112 10-114 0-189-69-189-195l0-110-127 0 0-144 127 0 0-350z" horiz-adv-x="1000" />

<glyph glyph-name="instagram" unicode="&#xe813;" d="M500 850c276 0 500-224 500-500 0-276-224-500-500-500-276 0-500 224-500 500 0 276 224 500 500 500z m0-187c-85 0-95-1-129-2-33-2-56-7-76-15-20-8-38-19-55-36-17-17-28-35-36-55-8-20-13-43-15-76-1-33-1-44-1-129 0-85 0-95 1-129 2-33 7-56 15-76 8-20 19-38 36-55 17-17 35-28 55-36 20-8 43-13 76-15 34-1 44-1 129-1 85 0 96 0 129 1 33 2 56 7 76 15 20 8 38 19 55 36 17 17 28 35 36 55 8 20 13 43 15 76 1 34 2 44 2 129 0 85-1 96-2 129-2 33-7 56-15 76-8 20-19 38-36 55-17 17-35 28-55 36-20 8-43 13-76 15-33 1-44 2-129 2z m0-57c83 0 93 0 126-2 31-1 47-6 58-10 15-6 25-13 36-24 11-11 18-21 24-36 4-11 9-27 10-58 2-33 2-43 2-126 0-83 0-93-2-126-1-31-6-47-10-58-6-15-13-25-24-36-11-11-21-18-36-24-11-4-27-9-58-10-33-2-43-2-126-2-83 0-93 0-126 2-31 1-47 6-58 10-15 6-25 13-36 24-11 11-18 21-24 36-4 11-9 27-10 58-2 33-2 43-2 126 0 83 0 93 2 126 1 31 6 47 10 58 6 15 13 25 24 36 11 11 21 18 36 24 11 4 27 9 58 10 33 2 43 2 126 2z m0-95c-89 0-160-72-160-161 0-89 71-160 160-160 89 0 161 71 161 160 0 89-72 161-161 161z m0-265c-57 0-104 47-104 104 0 58 47 104 104 104 58 0 104-46 104-104 0-57-46-104-104-104z m204 271c0-21-16-38-37-38-21 0-38 17-38 38 0 21 17 37 38 37 21 0 37-16 37-37z" horiz-adv-x="1000" />

<glyph glyph-name="linkedin" unicode="&#xe814;" d="M500 850c276 0 500-224 500-500 0-276-224-500-500-500-276 0-500 224-500 500 0 276 224 500 500 500z m-156-781l0 391-130 0 0-391 130 0z m468 0l0 224c0 120-64 176-150 176-69 0-99-38-117-65l0 56-129 0c1-37 0-391 0-391l129 0 0 218c0 12 1 23 5 32 9 23 30 47 66 47 47 0 66-36 66-88l0-209 130 0z m-532 579c-45 0-74-29-74-68 0-37 28-67 72-67l1 0c45 0 73 30 73 67-1 39-28 68-72 68z" horiz-adv-x="1000" />

<glyph glyph-name="accessibility" unicode="&#xe815;" d="M500 767c230 0 417-187 417-417 0-230-187-417-417-417-230 0-416 187-416 417 0 230 186 417 416 417z m169-296c-10 0-79-24-169-24-90 0-158 24-168 24-16 0-29-13-29-29 0-13 9-25 22-28 26-7 53-12 73-22 20-10 33-24 33-48 0-84-55-163-78-201 0 0 0 0 0 0-2-4-3-9-3-14 0-16 12-29 28-29 8 0 15 3 21 9 18 19 55 74 72 101 8 13 16 26 29 26 13 0 21-13 30-26 16-27 53-82 72-101 5-6 13-9 20-9 16 0 29 13 29 29 0 5-1 10-4 15 0 0 0 0 0 0-23 38-77 115-77 200 0 25 15 40 35 49 22 11 49 16 70 21 13 3 22 15 22 28 0 16-12 29-28 29z m-168 129c-37 0-66-29-66-66 0-37 29-66 66-66 36 0 66 29 66 66 0 37-30 66-66 66z" horiz-adv-x="1000" />

<glyph glyph-name="youtube" unicode="&#xe816;" d="M500 850c276 0 500-224 500-500 0-276-224-500-500-500-276 0-500 224-500 500 0 276 224 500 500 500z m299-350c-7 27-28 49-55 56-49 13-244 13-244 13 0 0-195 0-244-13-27-7-48-29-55-56-13-48-13-150-13-150 0 0 0-102 13-150 7-27 28-48 55-56 49-13 244-13 244-13 0 0 195 0 244 13 27 8 48 29 55 56 14 48 14 150 14 150 0 0 0 102-14 150z m-361-244l0 188 162-94-162-94z" horiz-adv-x="1000" />

<glyph glyph-name="tiktok" unicode="&#xe817;" d="M500 850c-276 0-500-224-500-500s224-500 500-500 500 224 500 500-224 500-500 500z m241-454c-10-1-90 5-139 49v-195c2-135-97-217-227-189-224 67-150 399 75 364 0-107 0 0 0-107-93 13-124-64-99-119 22-51 115-62 147 9 4 14 6 30 6 48v386l98 0h0c0-9 3-138 139-146 0-38 0-65 0-100z" horiz-adv-x="1000" />

<glyph glyph-name="twitter" unicode="&#xe818;" d="M526 362l172-246h-71l-140 201h0s-21 29-21 29l-164 235h70l133-190 20-29z m474-12c0-276-224-500-500-500s-500 224-500 500 224 500 500 500 500-224 500-500z m-239-268l-211 308h0l194 226h-46l-169-196-135 196h-155l204-297-204-236h46l178 207 143-207h155z" horiz-adv-x="1000" />

<glyph glyph-name="whatsapp" unicode="&#xe819;" d="M501 607c-141 0-255-114-255-254 0-50 15-97 39-135l6-10-25-94 96 25 9-5-1 1c38-23 83-37 131-37h0 0c140 0 254 114 254 255s-114 254-254 254z m150-363l-1-1c-11-18-29-31-51-36l1 0c-6-1-13-1-19-1-11 0-21 1-30 4l-3 1c-15 5-30 10-41 15l-2 1c-51 27-96 66-129 115l1 0c-18 22-29 49-32 79v0c0 1 0 1 0 2 0 24 10 46 27 62l0 0c5 6 12 9 20 9 5 0 11 0 15 0 5 0 11 2 17-13 7-15 22-53 24-57l0 0c1-2 2-4 2-7 0-2-1-4-2-6l0 0c-2-5-4-9-7-13-4-4-8-10-12-13-3-4-7-8-3-16l1-1c11-19 25-37 41-52 18-16 38-28 62-38 8-4 12-3 17 2 4 5 19 22 24 30 5 8 10 6 17 4 7-3 45-21 52-25l0 0c8-4 13-6 15-9l0 0c1-3 1-7 1-11 0-9-2-18-5-25z m-151 606c-276 0-500-224-500-500s224-500 500-500 500 224 500 500-224 500-500 500z m1-803h0c-54 0-104 14-147 37l-162-43 43 159c-25 45-40 97-40 153 0 169 137 306 306 306 84 0 161-34 216-90l0 0c56-55 90-131 90-216 0-169-137-306-306-306z" horiz-adv-x="1000" />

<glyph glyph-name="mail" unicode="&#xe81a;" d="M500 320c8 0 16 3 22 9l232 201c-1 2-2 3-4 5-7 7-17 12-29 12h-442c-11 0-22-5-29-12-2-2-3-3-4-4l232-202c6-6 14-9 22-9z m48-21c-13-12-31-18-48-18s-34 6-48 18l-17 14-176-154c6-3 13-5 20-5h442c8 0 15 2 21 5l-177 154-17-14z m-310 187v-291c0-1 0-1 0-2l167 146-167 147z m524-293c0 1 0 1 0 2v291l-167-147 167-146z m-262 657c-276 0-500-224-500-500s224-500 500-500 500 224 500 500-224 500-500 500z m306-655c0-12-3-23-7-34v0c-4-9-10-18-18-26-2-2-4-4-6-5-14-12-33-20-54-20h-442c-20 0-39 8-54 20-2 1-4 3-6 5-7 8-14 17-18 26-4 11-7 22-7 34v311c0 5 1 11 2 16 3 14 9 27 17 37 2 2 4 4 6 6 15 16 37 25 60 25h442c23 0 45-9 60-25 2-2 4-4 6-6 8-10 15-23 17-37 1-5 2-11 2-16v-311z" horiz-adv-x="1000" />

<glyph glyph-name="cat-img" unicode="&#xe81b;" d="M0 759v-818c0-77 15-91 91-91h1030c75 0 91 14 91 91v818c0 75-14 91-91 91h-1030c-75 0-91-13-91-91z m1069-697h-926c102 148 282 394 327 394s195-199 263-269c0 0 87 117 133 117 46 0 202-241 203-242z m-272 515c0 62 50 112 112 112s112-50 112-112-50-111-112-111-112 49-112 111z" horiz-adv-x="1212" />

<glyph glyph-name="cat-video" unicode="&#xe81c;" d="M1121 850h-1030c-75 0-91-13-91-91v-818c0-77 15-91 91-91h1030c75 0 91 14 91 91v818c0 75-14 91-91 91z m-245-532l-419-270c-22-15-53-8-53 36v532c0 48 29 49 53 36l419-270c17-18 17-46 0-64z" horiz-adv-x="1212" />

<glyph glyph-name="ticket" unicode="&#xe81d;" d="M491 510l-205-205 169-169 213 214-168 168-9-8z m-36-340l-135 135 180 179 134-134-179-180z m45 680c-276 0-500-224-500-500s224-500 500-500 500 224 500 500-224 500-500 500z m242-483l-22 22-17-17 22-22-316-316-61 61c20 38 16 75-6 97-22 22-59 26-97 6l-61 61 316 316 22-22 17 17-22 22 74 74 61-61c-20-38-16-75 6-97s59-26 97-6l61-61-74-74z" horiz-adv-x="1000" />

<glyph glyph-name="play-circled" unicode="&#xf144;" d="M429 779q116 0 215-58t156-156 57-215-57-215-156-156-215-58-216 58-155 156-58 215 58 215 155 156 216 58z m214-460q18 10 18 31t-18 31l-304 178q-17 11-35 1-18-11-18-31v-358q0-20 18-31 9-4 17-4 10 0 18 5z" horiz-adv-x="857.1" />
</font>
</defs>
</svg>
