<?xml version="1.0" standalone="no"?>
<!DOCTYPE svg PUBLIC "-//W3C//DTD SVG 1.1//EN" "http://www.w3.org/Graphics/SVG/1.1/DTD/svg11.dtd" >
<svg xmlns="http://www.w3.org/2000/svg" xmlns:xlink="http://www.w3.org/1999/xlink" version="1.1">
<metadata>
Created by FontForge 20201107 at Mon Aug  9 00:10:23 2021
 By Unknown
Copyright (c) 2017 by Rajesh Rajput. All rights reserved.
</metadata>
<defs>
<font id="Thunder-MediumLC" horiz-adv-x="364" >
  <font-face 
    font-family="Thunder Med"
    font-weight="500"
    font-stretch="normal"
    units-per-em="1000"
    panose-1="0 0 0 0 0 0 0 0 0 0"
    ascent="800"
    descent="-200"
    x-height="510"
    cap-height="700"
    bbox="-68 -252 991 897"
    underline-thickness="50"
    underline-position="-125"
    unicode-range="U+000D-FB02"
  />
<missing-glyph horiz-adv-x="535" 
d="M32 700h474v-700h-474v700zM269 391l156 259h-313zM82 83l162 267l-162 267v-534zM456 83v534l-162 -267zM112 50h313l-156 259z" />
    <glyph glyph-name=".notdef" horiz-adv-x="535" 
d="M32 700h474v-700h-474v700zM269 391l156 259h-313zM82 83l162 267l-162 267v-534zM456 83v534l-162 -267zM112 50h313l-156 259z" />
    <glyph glyph-name=".null" horiz-adv-x="0" 
 />
    <glyph glyph-name="uni000D" unicode="&#xd;" horiz-adv-x="250" 
 />
    <glyph glyph-name="space" unicode=" " horiz-adv-x="180" 
 />
    <glyph glyph-name="F" unicode="F" horiz-adv-x="292" 
d="M128 613v-220h143v-87h-143v-306h-100v700h250v-87h-150z" />
    <glyph glyph-name="G" unicode="G" horiz-adv-x="403" 
d="M126 163q0 -43 21 -64.5t47 -21.5q15 0 30 7t27 21.5t19.5 36.5t7.5 51v111h-79v67h178v-371h-71v83h-7q-15 -47 -51 -70t-77 -23q-27 0 -53 10.5t-46.5 33t-33 56.5t-12.5 80v360q0 47 13 81t36.5 56t55.5 32.5t70 10.5t70 -10.5t55.5 -33t37 -56t13.5 -80.5v-112h-99
v118q0 24 -6.5 40.5t-17 26.5t-24 14.5t-28.5 4.5q-14 0 -28 -4.5t-24.5 -14.5t-17 -26.5t-6.5 -40.5v-373z" />
    <glyph glyph-name="H" unicode="H" horiz-adv-x="390" 
d="M362 701v-700h-100v315h-134v-315h-100v700h100v-298h134v298h100z" />
    <glyph glyph-name="I" unicode="I" horiz-adv-x="156" 
d="M128 700v-700h-100v700h100z" />
    <glyph glyph-name="J" unicode="J" horiz-adv-x="373" 
d="M345 700v-530q0 -93 -47 -136.5t-122 -43.5t-121.5 43t-46.5 137v130h100v-137q0 -48 21 -67t49 -19q27 0 47 19t20 67v537h100z" />
    <glyph glyph-name="K" unicode="K" horiz-adv-x="385" 
d="M128 394h16l111 307h107l-136 -351l152 -350h-107l-127 306h-16v-306h-100v701h100v-307z" />
    <glyph glyph-name="L" unicode="L" horiz-adv-x="285" 
d="M128 700v-613h150v-87h-250v700h100z" />
    <glyph glyph-name="M" unicode="M" horiz-adv-x="495" 
d="M163 700l81 -536h7l81 536h135v-700h-93l11 534h-7l-93 -534h-74l-94 534h-7l11 -534h-93v700h135z" />
    <glyph glyph-name="N" unicode="N" horiz-adv-x="406" 
d="M377 700v-700h-116l-148 534h-6l21 -534h-100v700h116l150 -536h6l-23 536h100z" />
    <glyph glyph-name="O" unicode="O" horiz-adv-x="403" 
d="M27 530q0 47 13 81t36.5 56t55.5 32.5t69 10.5q38 0 70.5 -10.5t56.5 -33t37.5 -56t13.5 -80.5v-360q0 -46 -13.5 -80t-37.5 -56.5t-56.5 -33t-70.5 -10.5q-37 0 -69 10.5t-55.5 32.5t-36.5 56t-13 81v360zM127 163q0 -24 6.5 -40.5t17 -26.5t24 -14.5t28.5 -4.5
q14 0 28 4.5t24.5 14.5t17 26.5t6.5 40.5v374q0 24 -6.5 40.5t-17 26.5t-24.5 14.5t-28 4.5q-15 0 -28.5 -4.5t-24 -14.5t-17 -26.5t-6.5 -40.5v-374z" />
    <glyph glyph-name="P" unicode="P" horiz-adv-x="393" 
d="M191 700q87 0 132 -57t45 -176v-2q0 -119 -44 -170.5t-134 -51.5h-62v-243h-100v700h163zM128 331h62q78 0 78 100v76q0 106 -78 106h-62v-282z" />
    <glyph glyph-name="Q" unicode="Q" horiz-adv-x="403" 
d="M26 530q0 47 13 81t36.5 56t55.5 32.5t69 10.5q38 0 70.5 -10.5t56.5 -33t37.5 -56t13.5 -80.5v-360q0 -82 -39.5 -125t-102.5 -53v-30q0 -14 4.5 -19.5t18.5 -5.5h80v-74h-77q-48 0 -72 19t-24 67v43q-62 9 -101 52t-39 126v360zM126 163q0 -24 6.5 -40.5t17 -26.5
t24 -14.5t28.5 -4.5q14 0 28 4.5t24.5 14.5t17 26.5t6.5 40.5v374q0 24 -6.5 40.5t-17 26.5t-24.5 14.5t-28 4.5q-15 0 -28.5 -4.5t-24 -14.5t-17 -26.5t-6.5 -40.5v-374z" />
    <glyph glyph-name="R" unicode="R" horiz-adv-x="398" 
d="M191 700q84 0 130.5 -48t46.5 -140v-4q0 -80 -31 -124t-73 -52v-7q21 -4 39.5 -17.5t33 -35t23 -51t8.5 -65.5v-13q0 -51 2 -83.5t8 -59.5h-100q-8 31 -9 66.5t-1 77.5v54q0 42 -20 64.5t-58 22.5h-62v-285h-100v700h163zM128 372h62q38 0 58 24t20 69v55q0 45 -20 69
t-58 24h-62v-241z" />
    <glyph glyph-name="S" unicode="S" horiz-adv-x="403" 
d="M276 445v92q0 41 -19.5 63.5t-54.5 22.5t-54 -22.5t-19 -63.5v-39q0 -20 4 -35.5t15 -28t30 -24t49 -23.5l40 -15q61 -23 86 -64.5t25 -118.5v-19q0 -85 -46.5 -132.5t-130.5 -47.5t-129 47t-45 133v85h100v-92q0 -41 20 -63.5t55 -22.5q36 0 56 22.5t20 63.5v42
q0 20 -4.5 35.5t-15 28t-29 23.5t-47.5 23l-44 16q-59 23 -84 65.5t-25 118.5v15q0 87 45 133.5t127 46.5q83 0 129 -47.5t46 -132.5v-85h-100z" />
    <glyph glyph-name="T" unicode="T" horiz-adv-x="344" 
d="M337 613h-115v-613h-100v613h-115v87h330v-87z" />
    <glyph glyph-name="U" unicode="U" horiz-adv-x="393" 
d="M127 700v-537q0 -48 22 -67t49 -19t49 19t22 67v537h100v-530q0 -46 -13 -80t-36 -56.5t-54.5 -33t-69.5 -10.5q-37 0 -68 10.5t-53.5 32.5t-35 56t-12.5 81v530h100z" />
    <glyph glyph-name="V" unicode="V" horiz-adv-x="385" 
d="M107 700l82 -593h7l83 593h100l-109 -700h-156l-107 700h100z" />
    <glyph glyph-name="W" unicode="W" horiz-adv-x="525" 
d="M107 700l53 -535h7l61 535h69l61 -535h7l53 535h101l-84 -700h-116l-54 439h-7l-54 -439h-115l-82 700h100z" />
    <glyph glyph-name="X" unicode="X" horiz-adv-x="385" 
d="M189 410h7l72 290h105l-95 -340l100 -360h-105l-77 311h-7l-77 -311h-105l99 360l-94 340h105z" />
    <glyph glyph-name="Y" unicode="Y" horiz-adv-x="354" 
d="M107 700l66 -360h7l66 360h100l-121 -501v-199h-100v199l-119 501h101z" />
    <glyph glyph-name="Z" unicode="Z" horiz-adv-x="352" 
d="M327 700v-87l-209 -521l4 -5h216v-87h-323v87l209 521l-5 5h-194v87h302z" />
    <glyph glyph-name="a" unicode="a" horiz-adv-x="363" 
d="M246 359q0 36 -17 58t-44 22q-28 0 -44.5 -22t-16.5 -58v-54h-95v49q0 76 41.5 121t113.5 45t114.5 -45t42.5 -121v-353h-95v60h-3q-41 -71 -111 -71q-49 0 -78.5 33.5t-29.5 87.5v46q0 57 38 89t108 32h76v81zM246 228h-39q-88 0 -88 -65v-33q0 -30 15 -47t42 -17
q24 0 42.5 14t27.5 40v108z" />
    <glyph glyph-name="b" unicode="b" horiz-adv-x="366" 
d="M26 720h95v-276h7q16 37 43.5 56.5t61.5 19.5q48 0 78.5 -37.5t30.5 -103.5v-240q0 -67 -31 -108t-80 -41q-33 0 -60.5 20t-42.5 56h-7v-66h-95v720zM121 131q8 -26 26.5 -42t40.5 -16q26 0 42.5 21.5t16.5 54.5v212q0 33 -16.5 54.5t-42.5 21.5q-22 0 -40.5 -16
t-26.5 -42v-248z" />
    <glyph glyph-name="c" unicode="c" 
d="M118 151q0 -36 17.5 -57.5t46.5 -21.5t46 21.5t17 57.5v70h95v-65q0 -76 -43.5 -121t-115.5 -45q-73 0 -115.5 45t-42.5 121v198q0 76 42.5 121t114.5 45q73 0 116.5 -45.5t43.5 -120.5v-65h-95v70q0 36 -17.5 57.5t-45.5 21.5q-29 0 -46.5 -21.5t-17.5 -57.5v-208z" />
    <glyph glyph-name="d" unicode="d" horiz-adv-x="363" 
d="M245 0v64h-7q-16 -35 -43 -54.5t-59 -19.5q-23 0 -43.5 10.5t-36 31t-24.5 49.5t-9 65v235q0 66 32.5 102.5t79.5 36.5q33 0 61 -18.5t42 -53.5l7 1v271h95v-720h-95zM245 384q-8 24 -25.5 38.5t-40.5 14.5q-27 0 -44 -21t-17 -55v-211q0 -33 17 -54.5t43 -21.5
q23 0 41 15t26 40v255z" />
    <glyph glyph-name="e" unicode="e" 
d="M118 151q0 -35 17.5 -57t46.5 -22t46 22t17 57v40h95v-35q0 -75 -43.5 -120.5t-115.5 -45.5q-73 0 -115.5 45t-42.5 121v198q0 76 42.5 121t114.5 45q73 0 116.5 -45.5t43.5 -120.5v-123h-222v-80zM118 285h127v74q0 36 -17.5 57.5t-45.5 21.5q-29 0 -46.5 -21.5
t-17.5 -57.5v-74z" />
    <glyph glyph-name="f" unicode="f" horiz-adv-x="234" 
d="M50 567q0 41 9.5 69.5t27 46t41 25t51.5 7.5q36 0 75 -10l-3 -81q-22 6 -42 6q-26 0 -45 -14.5t-19 -52.5v-53h106v-82h-106v-428h-95v428h-50v82h50v57z" />
    <glyph glyph-name="g" unicode="g" horiz-adv-x="363" 
d="M341 -54q0 -72 -42 -114t-114 -42t-114 41.5t-42 113.5v17h95v-12q0 -35 16.5 -56.5t43.5 -21.5q28 0 45 21.5t17 58.5v119h-7q-18 -38 -46.5 -59.5t-60.5 -21.5q-48 0 -78 41.5t-30 107.5v236q0 65 29.5 105t77.5 40q32 0 61 -21t47 -60h7v71h95v-564zM246 373
q-10 28 -29.5 45.5t-41.5 17.5q-24 0 -40 -21.5t-16 -54.5v-209q0 -33 16 -55.5t40 -22.5q22 0 41.5 18t29.5 46v236z" />
    <glyph glyph-name="h" unicode="h" horiz-adv-x="366" 
d="M27 720h95v-281h6q17 39 44.5 60t61.5 21q46 0 77.5 -37.5t31.5 -108.5v-374h-95v361q0 33 -16 54t-41 21q-23 0 -41.5 -16.5t-27.5 -45.5v-374h-95v720z" />
    <glyph glyph-name="i" unicode="i" horiz-adv-x="159" 
d="M22 632q0 53 58 53q28 0 43.5 -13.5t15.5 -39.5t-15.5 -40t-43.5 -14q-58 0 -58 54zM129 510v-510h-96v510h96z" />
    <glyph glyph-name="j" unicode="j" horiz-adv-x="158" 
d="M20 633q0 27 16 40t42 13q27 0 43 -13.5t16 -39.5q0 -27 -15.5 -40.5t-42.5 -13.5t-43 13.5t-16 40.5zM126 -60q0 -75 -31.5 -112t-85.5 -37q-26 0 -59 9l2 81q9 -2 16 -3.5t14 -1.5q49 0 49 63v572h95v-571z" />
    <glyph glyph-name="k" unicode="k" horiz-adv-x="334" 
d="M121 314h6l107 197h96l-127 -242l132 -268h-95l-113 221h-6v-221h-95v720h95v-407z" />
    <glyph glyph-name="l" unicode="l" horiz-adv-x="151" 
d="M28 720h95v-720h-95v720z" />
    <glyph glyph-name="m" unicode="m" horiz-adv-x="572" 
d="M26 510h95v-71h7q16 39 42 60t58 21q33 0 58 -22t38 -60h6q17 39 45 60.5t61 21.5q46 0 79 -39t33 -107v-374h-95v361q0 33 -15 54.5t-39 21.5q-19 0 -36 -14t-29 -38v-16v-369h-95v361q0 33 -14.5 54.5t-37.5 21.5q-21 0 -39 -18t-27 -47v-372h-95v510z" />
    <glyph glyph-name="n" unicode="n" horiz-adv-x="366" 
d="M26 510h95v-71h7q17 39 44 60t61 21q46 0 77.5 -37.5t31.5 -108.5v-374h-95v362q0 33 -16 54t-41 21q-23 0 -41.5 -17t-27.5 -45v-375h-95v510z" />
    <glyph glyph-name="o" unicode="o" 
d="M24 354q0 74 41 120t116 46q38 0 67.5 -12.5t50 -34.5t31.5 -52.5t11 -66.5v-198q0 -36 -11 -66.5t-31.5 -52.5t-50 -34.5t-67.5 -12.5q-75 0 -116 46t-41 120v198zM119 151q0 -36 17 -57.5t46 -21.5t46.5 21.5t17.5 57.5v208q0 36 -17.5 57.5t-46.5 21.5t-46 -21.5
t-17 -57.5v-208z" />
    <glyph glyph-name="p" unicode="p" horiz-adv-x="366" 
d="M121 510v-76h7q23 45 50 65.5t56 20.5q24 0 43.5 -11t34 -31t22.5 -47.5t8 -60.5v-231q0 -66 -29.5 -107.5t-75.5 -41.5q-32 0 -61.5 22t-47.5 64h-7v-281h-95v715h95zM121 141q9 -28 28 -45.5t41 -17.5q25 0 41 22t16 54v202q0 32 -16 53.5t-41 21.5q-22 0 -41 -17.5
t-28 -45.5v-227z" />
    <glyph glyph-name="q" unicode="q" horiz-adv-x="363" 
d="M340 -205h-95v281h-7q-20 -42 -49.5 -64t-61.5 -22q-45 0 -74.5 41.5t-29.5 107.5v231q0 66 30 108t78 42q29 0 56 -20t51 -66h7v76h95v-715zM245 368q-10 28 -29.5 45.5t-40.5 17.5q-25 0 -41 -21.5t-16 -53.5v-202q0 -32 16 -54t41 -22q21 0 40.5 17.5t29.5 45.5v227z
" />
    <glyph glyph-name="r" unicode="r" horiz-adv-x="265" 
d="M121 419h3q16 46 42.5 73.5t74.5 27.5h8.5t8.5 -1v-94q-6 2 -11.5 2h-11.5q-60 0 -87 -40t-27 -106v-281h-95v510h95v-91z" />
    <glyph glyph-name="s" unicode="s" 
d="M242 325v35q0 37 -16 57.5t-45 20.5q-28 0 -44.5 -19t-16.5 -51v-1q0 -29 14 -44t49 -26l58 -23q51 -17 74.5 -46t23.5 -80v-13q0 -29 -11 -55.5t-32 -46.5t-50.5 -31.5t-66.5 -11.5t-66 12t-49 33.5t-30.5 51t-10.5 64.5v34h95v-34q0 -35 17 -56t45 -21q29 0 47 19
t18 48v5q0 30 -14 45t-52 26l-60 22q-48 17 -70.5 46t-22.5 79v9q0 31 10.5 57.5t30 46.5t48.5 31.5t65 11.5q75 0 116 -45.5t41 -115.5v-34h-95z" />
    <glyph glyph-name="t" unicode="t" horiz-adv-x="256" 
d="M5 510h50v109l95 7v-116h101v-82h-101v-286q0 -38 18 -53t42 -15q10 0 20 2t21 5l3 -82q-40 -9 -73 -9q-27 0 -50.5 7.5t-40 25t-26 45.5t-9.5 69v291h-50v82z" />
    <glyph glyph-name="u" unicode="u" horiz-adv-x="363" 
d="M340 0h-95v71h-7q-18 -39 -45.5 -60t-61.5 -21q-45 0 -76.5 37.5t-31.5 108.5v374h95v-364q0 -33 15.5 -54t41.5 -21q23 0 41.5 17t28.5 46v376h95v-510z" />
    <glyph glyph-name="v" unicode="v" horiz-adv-x="334" 
d="M101 510l63 -401h7l62 401h95l-92 -510h-137l-93 510h95z" />
    <glyph glyph-name="w" unicode="w" horiz-adv-x="513" 
d="M102 510l52 -381h7l62 381h68l62 -381h7l52 381h95l-87 -510h-106l-54 312h-6l-54 -312h-106l-87 510h95z" />
    <glyph glyph-name="x" unicode="x" horiz-adv-x="349" 
d="M171 301h7l63 209h99l-82 -249l86 -261h-100l-68 225h-6l-67 -225h-99l87 263l-82 247h99z" />
    <glyph glyph-name="y" unicode="y" horiz-adv-x="366" 
d="M342 -54q0 -72 -41.5 -114t-114.5 -42q-72 0 -114 41.5t-42 113.5v17h95v-12q0 -35 17 -56.5t44 -21.5q28 0 44.5 21.5t16.5 58.5v119h-7q-18 -39 -45.5 -60t-61.5 -21q-45 0 -76.5 37.5t-31.5 108.5v374h95v-364q0 -33 15.5 -54t41.5 -21q23 0 41.5 17t28.5 46v376h95
v-564z" />
    <glyph glyph-name="z" unicode="z" horiz-adv-x="319" 
d="M18 0v81l167 341l-3 6h-156v82h265v-81l-166 -341l3 -6h173v-82h-283z" />
    <glyph glyph-name="zero" unicode="0" horiz-adv-x="403" 
d="M27 530q0 47 13 81t36.5 56t55.5 32.5t69 10.5q38 0 70.5 -10.5t56.5 -33t37.5 -56t13.5 -80.5v-360q0 -46 -13.5 -80t-37.5 -56.5t-56.5 -33t-70.5 -10.5q-37 0 -69 10.5t-55.5 32.5t-36.5 56t-13 81v360zM127 163q0 -24 6.5 -40.5t17 -26.5t24 -14.5t28.5 -4.5
q14 0 28 4.5t24.5 14.5t17 26.5t6.5 40.5v374q0 24 -6.5 40.5t-17 26.5t-24.5 14.5t-28 4.5q-15 0 -28.5 -4.5t-24 -14.5t-17 -26.5t-6.5 -40.5v-374z" />
    <glyph glyph-name="one" unicode="1" horiz-adv-x="238" 
d="M95 0v607l-3 6h-63v87h166v-700h-100z" />
    <glyph glyph-name="two" unicode="2" horiz-adv-x="399" 
d="M26 530q0 85 46 132.5t129 47.5q82 0 127 -46.5t45 -133.5v-15q0 -87 -31 -144t-85 -90l-16 -10q-30 -19 -52 -35t-36 -32.5t-20.5 -36t-6.5 -45.5v-27h242v-95h-342v104q0 46 8 79t23.5 58.5t38.5 45.5t54 39l15 9q28 17 48 31.5t33.5 30.5t20 35t6.5 46v59
q0 41 -19 63.5t-54 22.5t-54.5 -22.5t-19.5 -63.5v-117h-100v110z" />
    <glyph glyph-name="three" unicode="3" horiz-adv-x="403" 
d="M278 537q0 42 -20 64t-56 22t-56 -22t-20 -64v-77h-100v70q0 85 46.5 132.5t131.5 47.5q83 0 128.5 -46.5t45.5 -133.5v-14q0 -75 -28.5 -114t-70.5 -47v-7q43 -7 71 -46.5t28 -116.5v-15q0 -87 -45.5 -133.5t-128.5 -46.5q-85 0 -131.5 47.5t-46.5 132.5v70h100v-77
q0 -42 20 -64t56 -22t56 22t20 64v38q0 31 -5 52t-17 34t-32.5 19t-51.5 6h-23v77h23q60 0 83 25.5t23 85.5v37z" />
    <glyph glyph-name="four" unicode="4" horiz-adv-x="383" 
d="M355 700v-700h-100v211h-227v489h100v-402h127v402h100z" />
    <glyph glyph-name="five" unicode="5" horiz-adv-x="398" 
d="M31 700h322v-87h-222v-180h2q25 27 55.5 41t60.5 14q54 0 89 -38t35 -107v-172q0 -88 -44 -134.5t-126 -46.5q-84 0 -130.5 47.5t-46.5 133.5v91h100v-98q0 -42 20 -64.5t56 -22.5q71 0 71 87v171q0 41 -20 60.5t-46 19.5q-22 0 -43 -14t-33 -41v-43h-100v383z" />
    <glyph glyph-name="six" unicode="6" horiz-adv-x="403" 
d="M275 466v71q0 48 -23 67t-52 19q-14 0 -27 -4.5t-23.5 -15t-17 -27t-6.5 -41.5v-158h7q17 32 48 45t61 13q26 0 50.5 -8.5t43.5 -27t30.5 -48t11.5 -70.5v-111q0 -46 -13.5 -80t-37.5 -56.5t-56.5 -33t-70.5 -10.5q-37 0 -69 10.5t-55.5 32.5t-36.5 56t-13 81v360
q0 47 13 81t36 56t55 32.5t69 10.5q38 0 70 -10.5t55.5 -33t37 -56t13.5 -80.5v-65zM126 163q0 -24 6.5 -40.5t17 -26.5t24 -14.5t28.5 -4.5q14 0 28 4.5t24.5 14.5t17 26.5t6.5 40.5v94q0 48 -22.5 67t-51.5 19q-15 0 -29 -4.5t-25 -14.5t-17.5 -26.5t-6.5 -40.5v-94z" />
    <glyph glyph-name="seven" unicode="7" horiz-adv-x="368" 
d="M28 700h312v-87l-149 -613h-103l148 608l-4 5h-204v87z" />
    <glyph glyph-name="eight" unicode="8" horiz-adv-x="408" 
d="M28 535q0 91 44.5 133t129.5 42t131.5 -42.5t46.5 -132.5v-17q0 -30 -8 -55.5t-21 -44.5t-30.5 -31t-37.5 -15v-7q40 -7 70 -46t30 -119v-30q0 -94 -48 -137t-133 -43t-130.5 43t-45.5 137v30q0 78 27 118.5t67 47.5v7q-39 7 -65.5 46t-26.5 99v17zM128 494
q0 -44 23.5 -62.5t52.5 -18.5t52.5 18.5t23.5 62.5v43q0 48 -23 67t-53 19t-53 -19t-23 -67v-43zM126 163q0 -48 24 -67t54 -19t54.5 19t24.5 67v76q0 40 -20 63t-59 23t-58.5 -23t-19.5 -63v-76z" />
    <glyph glyph-name="nine" unicode="9" horiz-adv-x="403" 
d="M128 234v-71q0 -24 6.5 -40.5t17 -26.5t24 -14.5t27.5 -4.5q29 0 51.5 19.5t22.5 68.5v158h-7q-17 -32 -48 -45.5t-61 -13.5q-25 0 -49.5 8.5t-43.5 27t-30.5 48t-11.5 70.5v112q0 47 13.5 80.5t37 56t56 33t70.5 10.5t69.5 -10.5t55 -32.5t36.5 -56t13 -81v-360
q0 -47 -13 -81t-36 -56t-54.5 -32.5t-69.5 -10.5t-70 10.5t-55.5 33t-37 56.5t-13.5 80v64h100zM277 537q0 24 -6.5 40.5t-17 26.5t-24 14.5t-28.5 4.5q-29 0 -52 -19t-23 -67v-94q0 -48 22 -67t51 -19q15 0 29 4.5t25 14.5t17.5 26.5t6.5 40.5v94z" />
    <glyph glyph-name="dollar" unicode="$" horiz-adv-x="403" 
d="M276 445v92q0 41 -19.5 63.5t-54.5 22.5t-54 -22.5t-19 -63.5v-39q0 -20 4 -35.5t15 -28t30 -24t49 -23.5l40 -15q61 -23 86 -64.5t25 -118.5v-19q0 -74 -35.5 -120t-100.5 -57l5 -91h-90l4 91q-65 11 -99.5 56.5t-34.5 120.5v85h100v-92q0 -41 20 -63.5t55 -22.5
q36 0 56 22.5t20 63.5v42q0 20 -4.5 35.5t-15 28t-29 23.5t-47.5 23l-44 16q-59 23 -84 65.5t-25 118.5v15q0 75 34.5 120.5t97.5 56.5l-4 92h90l-5 -92q64 -12 99 -57.5t35 -119.5v-85h-100z" />
    <glyph glyph-name="cent" unicode="&#xa2;" 
d="M118 151q0 -36 17.5 -57.5t46.5 -21.5t46 21.5t17 57.5v70h95v-65q0 -63 -30 -105t-83 -56l5 -95h-90l4 93q-57 11 -90 53.5t-33 109.5v198q0 66 33 109t90 54l-4 92h90l-5 -95q53 -14 83 -55.5t30 -104.5v-65h-95v70q0 36 -17.5 57.5t-45.5 21.5q-29 0 -46.5 -21.5
t-17.5 -57.5v-208z" />
    <glyph glyph-name="yen" unicode="&#xa5;" horiz-adv-x="354" 
d="M107 700l66 -360h7l66 360h100l-97 -403h93v-64h-109l-7 -32h116v-64h-117v-137h-100v137h-114v64h113l-7 32h-106v64h91l-96 403h101z" />
    <glyph glyph-name="section" unicode="&#xa7;" horiz-adv-x="379" 
d="M257 500v40q0 44 -18 66t-50 22q-31 0 -49.5 -20t-18.5 -60v-31q0 -20 3.5 -34t11.5 -23.5t21 -16t32 -11.5l60 -23q54 -17 79.5 -48.5t25.5 -87.5v-48q0 -36 -14 -66t-44 -50q29 -18 43.5 -46t14.5 -76v-42q0 -32 -11.5 -60.5t-33 -49.5t-52.5 -33t-70 -12
q-77 0 -120 46.5t-43 124.5v39h95v-39q0 -44 19 -66t51 -22t51.5 21.5t19.5 56.5v35q0 42 -16 59t-56 27l-62 22q-51 17 -75 49t-24 86v44q0 36 14.5 67t43.5 52q-30 17 -44 46t-14 76v39q0 69 42.5 113t118.5 44q78 0 121 -46.5t43 -124.5v-39h-95zM193 150q37 9 52 32.5
t15 48.5v40q0 34 -15 51.5t-53 28.5q-38 -6 -54.5 -28t-16.5 -55v-36q0 -33 15 -51t53 -29z" />
    <glyph glyph-name="D" unicode="D" horiz-adv-x="398" 
d="M196 700q38 0 70.5 -10t56.5 -31t37.5 -53.5t13.5 -78.5v-354q0 -46 -13.5 -79t-37.5 -54t-56.5 -30.5t-70.5 -9.5h-167v700h167zM129 87h66q16 0 30 4t24.5 14t17 26.5t6.5 40.5v356q0 24 -6.5 40.5t-17 26.5t-24.5 14t-30 4h-66v-526z" />
    <glyph glyph-name="ellipsis" unicode="&#x2026;" horiz-adv-x="448" 
d="M31 54q0 27 14 42.5t42 15.5t42 -15.5t14 -43.5q0 -27 -14 -42.5t-42 -15.5t-42 15.5t-14 43.5zM168 54q0 27 14 42.5t42 15.5t42 -15.5t14 -43.5q0 -27 -14 -42.5t-42 -15.5t-42 15.5t-14 43.5zM305 54q0 27 14 42.5t42 15.5t42 -15.5t14 -43.5q0 -27 -14 -42.5
t-42 -15.5t-42 15.5t-14 43.5z" />
    <glyph glyph-name="divide" unicode="&#xf7;" horiz-adv-x="407" 
d="M377 305h-346v74h346v-74zM152.9 471.602q0 24.3008 12.6006 38.251t37.8008 13.9502q25.2012 0 37.8018 -13.9502q12.5996 -13.9502 12.5996 -39.1514q0 -24.3008 -12.5996 -38.251q-12.6006 -13.9502 -37.8018 -13.9502q-25.2002 0 -37.8008 13.9502t-12.6006 39.1514z
M152.9 218.602q0 24.3008 12.6006 38.251t37.8008 13.9502q25.2012 0 37.8018 -13.9502q12.5996 -13.9502 12.5996 -39.1514q0 -24.3008 -12.5996 -38.251q-12.6006 -13.9502 -37.8018 -13.9502q-25.2002 0 -37.8008 13.9502t-12.6006 39.1514z" />
    <glyph glyph-name="exclam" unicode="!" horiz-adv-x="198" 
d="M149 701v-100l-12 -473h-76l-12 473v100h100zM43 54q0 27 14 42.5t42 15.5t42 -15.5t14 -43.5q0 -27 -14 -42.5t-42 -15.5t-42 15.5t-14 43.5z" />
    <glyph glyph-name="period" unicode="." horiz-adv-x="174" 
d="M31 54q0 27 14 42.5t42 15.5t42 -15.5t14 -43.5q0 -27 -14 -42.5t-42 -15.5t-42 15.5t-14 43.5z" />
    <glyph glyph-name="comma" unicode="," horiz-adv-x="174" 
d="M52 146h91l-75 -252h-63z" />
    <glyph glyph-name="colon" unicode=":" horiz-adv-x="174" 
d="M31 54q0 27 14 42.5t42 15.5t42 -15.5t14 -43.5q0 -27 -14 -42.5t-42 -15.5t-42 15.5t-14 43.5zM31 458q0 27 14 42.5t42 15.5t42 -15.5t14 -43.5q0 -27 -14 -42.5t-42 -15.5t-42 15.5t-14 43.5z" />
    <glyph glyph-name="quotedblright" unicode="&#x201d;" horiz-adv-x="300" 
d="M178.008 720.026h89.9941l-44.9971 -293.982h-66.9961zM52.0146 720.026h89.9951l-44.9971 -293.982h-66.9961z" />
    <glyph glyph-name="quotedblleft" unicode="&#x201c;" horiz-adv-x="300" 
d="M121 426h-90l45 294h67zM247 426h-90l45 294h67z" />
    <glyph glyph-name="quoteright" unicode="&#x2019;" horiz-adv-x="173" 
d="M52.0078 720.026h89.9941l-44.9971 -293.982h-66.9961z" />
    <glyph glyph-name="quoteleft" unicode="&#x2018;" horiz-adv-x="173" 
d="M121 426h-90l45 294h67z" />
    <glyph glyph-name="question" unicode="?" horiz-adv-x="409" 
d="M31 531q0 85 46 132.5t129 47.5q82 0 127 -47t45 -133v-15q0 -42 -7 -71.5t-18 -51t-24.5 -36.5t-27.5 -29l-1 -2q-12 -11 -23 -22.5t-20 -26.5t-14 -34t-5 -46v-59h-95v53q0 39 6.5 65.5t16.5 45.5t23 33t26 26l1 1q12 11 23.5 22t20 26.5t13.5 36.5t5 52v38
q0 42 -19.5 64t-54.5 22t-54 -22t-19 -64v-122h-100v116zM135 54q0 27 14 42.5t42 15.5q27 0 41.5 -15.5t14.5 -43.5q0 -27 -14 -42.5t-42 -15.5t-42 15.5t-14 43.5z" />
    <glyph glyph-name="bar" unicode="|" horiz-adv-x="161" 
d="M31 -155v875h100v-875h-100z" />
    <glyph glyph-name="slash" unicode="/" horiz-adv-x="229" 
d="M18 -80l103 810h90l-103 -810h-90z" />
    <glyph glyph-name="backslash" unicode="\" horiz-adv-x="239" 
d="M28 730h90l103 -810h-90z" />
    <glyph glyph-name="fraction" unicode="&#x2044;" horiz-adv-x="244" 
d="M90 0h-58l122 720h59z" />
    <glyph glyph-name="less" unicode="&#x3c;" horiz-adv-x="340" 
d="M309 114l-278 115v70l279 117v-91l-213 -57v-7l212 -55v-92z" />
    <glyph glyph-name="greater" unicode="&#x3e;" horiz-adv-x="340" 
d="M30.0186 416.007l277.983 -114.993v-69.9951l-278.983 -116.993v90.9941l212.987 56.9971v6.99902l-211.987 54.9971v91.9941z" />
    <glyph glyph-name="percent" unicode="%" horiz-adv-x="693" 
d="M23 544q0 37 7 67.5t23 52.5t42 34t63 12t63 -12.5t42.5 -34.5t24 -52.5t7.5 -66.5v-78q0 -36 -7.5 -66.5t-24 -52.5t-42.5 -34.5t-63 -12.5t-63 12.5t-42 34.5t-23 52.5t-7 66.5v78zM467 700h61l-300 -700h-61zM103 446q0 -36 12 -57.5t44 -21.5t44 21.5t12 57.5v118
q0 36 -12 57.5t-44 21.5t-44 -21.5t-12 -57.5v-118zM397 234q0 37 7 67.5t23 52.5t42 34t63 12t63 -12.5t42.5 -34.5t24 -52.5t7.5 -66.5v-78q0 -36 -7.5 -66.5t-24 -52.5t-42.5 -34.5t-63 -12.5t-63 12.5t-42 34.5t-23 52.5t-7 66.5v78zM477 136q0 -35 12 -57t44 -22t44 22
t12 57v118q0 37 -12 58.5t-44 21.5t-44 -21.5t-12 -58.5v-118z" />
    <glyph glyph-name="perthousand" unicode="&#x2030;" horiz-adv-x="996" 
d="M23 544q0 37 7 67.5t23 52.5t42 34t63 12t63 -12.5t42.5 -34.5t24 -52.5t7.5 -66.5v-78q0 -36 -7.5 -66.5t-24 -52.5t-42.5 -34.5t-63 -12.5t-63 12.5t-42 34.5t-23 52.5t-7 66.5v78zM467 700h61l-300 -700h-61zM103 446q0 -36 12 -57.5t44 -21.5t44 21.5t12 57.5v118
q0 36 -12 57.5t-44 21.5t-44 -21.5t-12 -57.5v-118zM397 234q0 37 7 67.5t23 52.5t42 34t63 12t63 -12.5t42.5 -34.5t24 -52.5t7.5 -66.5v-78q0 -36 -7.5 -66.5t-24 -52.5t-42.5 -34.5t-63 -12.5t-63 12.5t-42 34.5t-23 52.5t-7 66.5v78zM700 234q0 37 7 67.5t23 52.5t42 34
t63 12t63 -12.5t42.5 -34.5t24 -52.5t7.5 -66.5v-78q0 -36 -7.5 -66.5t-24 -52.5t-42.5 -34.5t-63 -12.5t-63 12.5t-42 34.5t-23 52.5t-7 66.5v78zM477 136q0 -35 12 -57t44 -22t44 22t12 57v118q0 37 -12 58.5t-44 21.5t-44 -21.5t-12 -58.5v-118zM780 136q0 -35 12 -57
t44 -22t44 22t12 57v118q0 37 -12 58.5t-44 21.5t-44 -21.5t-12 -58.5v-118z" />
    <glyph glyph-name="guillemotleft" unicode="&#xab;" horiz-adv-x="600" 
d="M314 77l-283 152v70l283 154l5 -89l-181 -98v-2l181 -98zM564 77l-283 152v70l283 154l5 -89l-181 -98v-2l181 -98z" />
    <glyph glyph-name="guillemotright" unicode="&#xbb;" horiz-adv-x="600" 
d="M285.02 453.005l282.982 -151.991v-69.9951l-282.982 -153.991l-5 88.9951l180.989 97.9941v1.99902l-180.989 97.9941zM35.0342 453.005l282.983 -151.991v-69.9951l-282.983 -153.991l-4.99902 88.9951l180.988 97.9941v1.99902l-180.988 97.9941z" />
    <glyph glyph-name="asciicircum" unicode="^" horiz-adv-x="294" 
d="M187 470l-36 191h-8l-36 -191h-76l72 230h88l72 -230h-76z" />
    <glyph glyph-name="asterisk" unicode="*" horiz-adv-x="404" 
d="M161 540l-130 27l25 76l121 -54l-15 131h80l-14 -131l120 54l25 -76l-130 -27l89 -98l-64 -47l-66 115l-66 -115l-64 47z" />
    <glyph glyph-name="numbersign" unicode="#" horiz-adv-x="449" 
d="M113 239h-82v64h85l6 95h-91v64h94l14 239h70l-14 -239h72l14 239h70l-14 -239h81v-64h-85l-5 -95h90v-64h-94l-13 -239h-70l14 239h-73l-13 -239h-70zM258 303l6 95h-73l-5 -95h72z" />
    <glyph glyph-name="bracketleft" unicode="[" horiz-adv-x="241" 
d="M32 -155v875h180v-87h-80v-701h80v-87h-180z" />
    <glyph glyph-name="bracketright" unicode="]" horiz-adv-x="241" 
d="M209.002 719.99v-874.946h-179.989v86.9951h79.9951v700.957h-79.9951v86.9941h179.989z" />
    <glyph glyph-name="parenleft" unicode="(" horiz-adv-x="222" 
d="M106 -168q-38 124 -56 233.5t-18 217.5q0 107 18 216.5t56 233.5l85 -13q-30 -124 -44.5 -230t-14.5 -207q0 -102 14.5 -208t44.5 -230z" />
    <glyph glyph-name="parenright" unicode=")" horiz-adv-x="222" 
d="M116.007 732.99q37.9971 -123.993 55.9961 -233.486t17.999 -217.486q0 -106.994 -17.999 -216.487t-55.9961 -233.485l-84.9951 12.999q29.998 123.992 44.4971 229.986q14.499 105.993 14.499 206.987q0 101.993 -14.499 207.987q-14.499 105.993 -44.4971 229.985z
" />
    <glyph glyph-name="braceleft" unicode="{" horiz-adv-x="322" 
d="M202 391q0 -52 -15.5 -78.5t-58.5 -26.5v-7q43 0 58.5 -26.5t15.5 -78.5v-159q0 -29 2.5 -47.5t10 -29t20 -15t31.5 -4.5h26v-87h-57q-68 0 -100.5 37.5t-32.5 117.5v183q0 20 -2 33.5t-9 22.5t-21 13t-38 4v79q24 0 38 4t21 13t9 23t2 33v183q0 80 32.5 117.5
t100.5 37.5h57v-87h-26q-19 0 -31.5 -4.5t-20 -15t-10 -29t-2.5 -47.5v-159z" />
    <glyph glyph-name="braceright" unicode="}" horiz-adv-x="322" 
d="M119.013 174.023q0 51.9971 15.499 78.4961q15.499 26.498 58.4961 26.498v6.99902q-42.9971 0 -58.4961 26.499q-15.499 26.498 -15.499 78.4951v158.99q0 28.998 -2.5 47.4971t-10 28.998q-7.49902 10.5 -19.998 14.999q-12.5 4.5 -31.498 4.5h-25.999v86.9951h56.9971
q67.9951 0 100.493 -37.498t32.498 -117.493v-182.988q0 -19.999 2 -33.498t9 -22.499q6.99902 -8.99902 20.998 -12.999q14 -4 37.998 -4v-78.9951q-23.998 0 -37.998 -4q-13.999 -3.99902 -20.998 -12.999q-7 -8.99902 -9 -22.998t-2 -32.998v-182.989
q0 -79.9951 -32.498 -117.493q-32.498 -37.4971 -100.493 -37.4971h-56.9971v86.9941h25.999q18.998 0 31.498 4.5q12.499 4.5 19.998 14.999q7.5 10.499 10 28.998t2.5 47.4971v158.99z" />
    <glyph glyph-name="at" unicode="@" horiz-adv-x="634" 
d="M461 88q0 -19 10 -29t23 -10q12 0 22 10t10 29v330q0 42 -15 72.5t-43 50.5t-66 29.5t-85 9.5q-46 0 -84.5 -9.5t-66 -29.5t-42.5 -50.5t-15 -72.5v-299q0 -55 15 -93.5t44.5 -62t71.5 -34t96 -10.5v-79q-149 0 -230.5 67.5t-81.5 208.5v315q0 54 23.5 96t63 71.5t93 45
t113.5 15.5t113.5 -15.5t93.5 -45t63.5 -72t23.5 -95.5v-329q0 -53 -33.5 -83t-83.5 -30q-45 0 -76.5 24t-31.5 66v10h-7q-13 -47 -40 -73t-63 -26q-47 0 -74.5 42.5t-27.5 117.5v226q0 57 29.5 94t75.5 37q34 0 60.5 -22.5t39.5 -61.5h7v77h75v-412zM386 379
q-9 25 -27 38.5t-39 13.5q-27 0 -44 -21t-17 -54v-199q0 -34 17 -56t43 -22q21 0 39.5 15.5t27.5 41.5v243z" />
    <glyph glyph-name="ampersand" unicode="&#x26;" horiz-adv-x="443" 
d="M126 468q0 -39 19.5 -61t56.5 -22h76v60h99v-60h40v-70h-40v-315h-71v83h-7q-14 -44 -48.5 -68.5t-79.5 -24.5q-30 0 -56.5 11.5t-46 34.5t-31 56.5t-11.5 77.5v20q0 64 23.5 106.5t85.5 50.5v7q-31 3 -51.5 16t-33.5 33.5t-18.5 48t-5.5 59.5v19q0 87 45.5 133.5
t128.5 46.5q85 0 131 -47.5t46 -132.5v-40h-99v47q0 41 -20 63.5t-56 22.5t-56 -22.5t-20 -63.5v-69zM202 315q-37 0 -56.5 -22t-19.5 -61v-69q0 -38 19 -62t50 -24q36 0 59.5 32.5t23.5 84.5v121h-76z" />
    <glyph glyph-name="tilde" unicode="&#x2dc;" horiz-adv-x="251" 
d="M220 669q0 -106 -49 -106q-29 0 -53 41l-4 6q-15 28 -33 28q-21 0 -21 -46v-26h-29v25q0 53 12.5 81t36.5 28q27 0 49 -38l4 -6q17 -30 36 -30q22 0 22 43v28h29v-28z" />
    <glyph glyph-name="plus" unicode="+" horiz-adv-x="447" 
d="M417 302h-153v-155h-80v155h-153v75h153v156h80v-156h153v-75z" />
    <glyph glyph-name="hyphen" unicode="-" horiz-adv-x="301" 
d="M272 296h-240v87h240v-87z" />
    <glyph glyph-name="endash" unicode="&#x2013;" horiz-adv-x="542" 
d="M572 296h-540v87h540v-87z" />
    <glyph glyph-name="emdash" unicode="&#x2014;" horiz-adv-x="781" 
d="M991 296h-960v87h960v-87z" />
    <glyph glyph-name="underscore" unicode="_" horiz-adv-x="351" 
d="M321 -78h-290v78h290v-78z" />
    <glyph glyph-name="minus" unicode="&#x2212;" horiz-adv-x="407" 
d="M377 302h-346v74h346v-74z" />
    <glyph glyph-name="equal" unicode="=" horiz-adv-x="432" 
d="M402 402h-371v75h371v-75zM402 202h-371v75h371v-75z" />
    <glyph glyph-name="bullet" unicode="&#x2022;" horiz-adv-x="231" 
d="M31 367q0 40 22 62t62 22t62 -22t22 -62t-22 -62t-62 -22t-62 22t-22 62z" />
    <glyph glyph-name="questiondown" unicode="&#xbf;" horiz-adv-x="409" 
d="M158 467q0 27 14 42.5t42 15.5t42 -15.5t14 -43.5q0 -27 -14 -42.5t-42 -15.5t-42 15.5t-14 43.5zM378 -30q0 -86 -46 -133t-129 -47q-82 0 -127 46.5t-45 133.5v14q0 42 7 72t18 51t24.5 36.5t27.5 29.5l1 1q12 12 23 23.5t19.5 26t13.5 34t5 46.5v67h95v-62
q0 -38 -6.5 -65t-16.5 -46t-23 -32.5t-26 -25.5l-1 -1q-12 -11 -23 -22.5t-19.5 -26.5t-13.5 -36.5t-5 -51.5v-39q0 -41 19 -63.5t54 -22.5t54.5 22.5t19.5 63.5v122h100v-115z" />
    <glyph glyph-name="exclamdown" unicode="&#xa1;" horiz-adv-x="198" 
d="M43 468q0 27 14 42.5t42 15.5q27 0 41.5 -15.5t14.5 -43.5q0 -27 -14 -42.5t-42 -15.5t-42 15.5t-14 43.5zM49 -100l12 483h76l12 -483v-100h-100v100z" />
    <glyph glyph-name="paragraph" unicode="&#xb6;" horiz-adv-x="503" 
d="M373 -155v875h100v-875h-100zM211 -155v388q-47 0 -81 7t-56 32t-32.5 73.5t-10.5 131.5t10.5 131t32.5 73t56 32t81 7h100v-875h-100z" />
    <glyph glyph-name="copyright" unicode="&#xa9;" horiz-adv-x="648" 
d="M31 395q0 155 71.5 235t217.5 80q150 0 224 -81.5t74 -233.5v-86q0 -155 -72.5 -237t-225.5 -82q-151 0 -220 81t-69 241v83zM104 303q0 -131 53 -191t165 -60q113 0 168 60.5t55 189.5v100q0 246 -221 246q-110 0 -165 -60.5t-55 -185.5v-99zM258 272q0 -38 17 -58.5
t49 -20.5t49 20.5t17 58.5v47h90v-42q0 -77 -36.5 -122t-119.5 -45t-119.5 44.5t-36.5 122.5v145q0 78 35 122.5t121 44.5q44 0 73.5 -11.5t48 -33.5t26.5 -52.5t8 -69.5v-40h-90v45q0 38 -17 59t-49 21t-49 -21t-17 -59v-155z" />
    <glyph glyph-name="logicalnot" unicode="&#xac;" horiz-adv-x="535" 
d="M32 700h474v-700h-474v700zM269 391l156 259h-313zM82 83l162 267l-162 267v-534zM456 83v534l-162 -267zM112 50h313l-156 259z" />
    <glyph glyph-name="registered" unicode="&#xae;" horiz-adv-x="648" 
d="M31 395q0 156 71.5 235.5t217.5 79.5q150 0 224 -81.5t74 -233.5v-86q0 -154 -72.5 -236.5t-225.5 -82.5q-151 0 -220 81t-69 241v83zM104 303q0 -131 53 -191t165 -60q113 0 168 60.5t55 189.5v100q0 125 -55.5 185.5t-165.5 60.5t-165 -60.5t-55 -185.5v-99zM328 558
q51 0 78.5 -28.5t27.5 -84.5v-2q0 -48 -18.5 -73.5t-43.5 -30.5v-7q25 -5 43.5 -30.5t18.5 -69.5v-8q0 -31 1 -50t5 -36h-63q-5 19 -5.5 40t-0.5 46v33q0 50 -44 50h-38v-169h-63v420h102zM289 363h38q44 0 44 54v34q0 27 -10.5 39t-33.5 12h-38v-139z" />
    <glyph glyph-name="trademark" unicode="&#x2122;" horiz-adv-x="400" 
d="M154 660h-38v-240h-46v240h-39v40h123v-40zM239 700l25 -214h7l25 214h73v-280h-43l3 214h-7l-31 -214h-48l-31 214h-7l4 -214h-43v280h73z" />
    <glyph glyph-name="multiply" unicode="&#xd7;" horiz-adv-x="406" 
d="M375 455l-116 -116l116 -115l-57 -57l-115 116l-115 -116l-57 57l116 115l-116 116l57 56l115 -115l115 115z" />
    <glyph glyph-name="brokenbar" unicode="&#xa6;" horiz-adv-x="161" 
d="M31 322v398h100v-398h-100zM31 -155v395h100v-395h-100z" />
    <glyph glyph-name="dagger" unicode="&#x2020;" horiz-adv-x="372" 
d="M236 700v-190h105v-87h-105v-423h-100v423h-105v87h105v190h100z" />
    <glyph glyph-name="daggerdbl" unicode="&#x2021;" horiz-adv-x="372" 
d="M236 700v-175h105v-87h-105v-176h105v-87h-105v-175h-100v175h-105v87h105v176h-105v87h105v175h100z" />
    <glyph glyph-name="guilsinglright" unicode="&#x203a;" horiz-adv-x="350" 
d="M35.0195 453.005l282.982 -151.991v-69.9951l-282.982 -153.991l-5 88.9951l179.989 97.9941v2.99902l-179.989 96.9941z" />
    <glyph glyph-name="guilsinglleft" unicode="&#x2039;" horiz-adv-x="350" 
d="M314 77l-283 152v70l283 154l5 -89l-180 -98v-3l180 -97z" />
    <glyph glyph-name="Euro" unicode="&#x20ac;" horiz-adv-x="469" 
d="M168 437h118v-69h-118v-36h118v-74h-118v-74q0 -32 8 -52.5t21 -32.5t28.5 -17t30.5 -5t31 5t28.5 17t20.5 32.5t8 52.5v122h100v-135q0 -47 -14 -81t-39.5 -56.5t-60.5 -33t-76 -10.5q-40 0 -74.5 10.5t-59 32.5t-38.5 56.5t-14 81.5v87h-42v74h42v36h-42v69h42v94
q0 47 14 81t38.5 56t59 32.5t74.5 10.5q41 0 76 -10.5t60.5 -33t39.5 -56t14 -80.5v-136h-100v122q0 32 -8 52.5t-20.5 32.5t-28.5 16.5t-31 4.5t-30.5 -4.5t-28.5 -16.5t-21 -32.5t-8 -52.5v-80z" />
    <glyph glyph-name="circumflex" unicode="&#x2c6;" horiz-adv-x="241" 
d="M31 563l52 137h75l52 -137h-55l-33 82h-4l-32 -82h-55z" />
    <glyph glyph-name="degree" unicode="&#xb0;" horiz-adv-x="219" 
d="M31 636q0 42 22.5 68t68.5 26t69.5 -26.5t23.5 -67.5v-109q0 -42 -23.5 -68.5t-69.5 -26.5t-68.5 26.5t-22.5 68.5v109zM86 524q0 -16 7.5 -29.5t29.5 -13.5q23 0 30 13.5t7 29.5v115q0 15 -7 28.5t-30 13.5q-22 0 -29.5 -13.5t-7.5 -28.5v-115z" />
    <glyph glyph-name="quotesingle" unicode="'" horiz-adv-x="137" 
d="M107 660l-7 -219h-61l-7 219v60h75v-60z" />
    <glyph glyph-name="quotedbl" unicode="&#x22;" horiz-adv-x="249" 
d="M107 660l-7 -219h-61l-7 219v60h75v-60zM218 660l-7 -219h-61l-7 219v60h75v-60z" />
    <glyph glyph-name="quotesinglbase" unicode="&#x201a;" horiz-adv-x="174" 
d="M53 175h90l-45 -294h-67z" />
    <glyph glyph-name="quotedblbase" unicode="&#x201e;" horiz-adv-x="300" 
d="M53 175h90l-45 -294h-67zM179 175h90l-45 -294h-67z" />
    <glyph glyph-name="asciitilde" unicode="~" horiz-adv-x="377" 
d="M345 386q0 -60 -19 -87.5t-57 -27.5q-22 0 -42.5 9t-43.5 27l-5 4q-20 17 -35.5 24t-31.5 7q-37 0 -37 -50v-19h-43v19q0 115 78 115q40 0 86 -36l5 -4q39 -30 66 -30q37 0 37 49v19h42v-19z" />
    <glyph glyph-name="acute" unicode="&#xb4;" horiz-adv-x="180" 
d="M31 563l44 137h75l-55 -137h-64z" />
    <glyph glyph-name="grave" unicode="`" horiz-adv-x="180" 
d="M86 563l-55 137h75l44 -137h-64z" />
    <glyph glyph-name="dieresis" unicode="&#xa8;" horiz-adv-x="288" 
d="M31 633q0 23 10.5 36.5t37.5 13.5t38 -14t11 -37t-10.5 -36t-37.5 -13t-38 13.5t-11 36.5zM160 633q0 23 10.5 36.5t37.5 13.5t38 -14t11 -37t-10.5 -36t-37.5 -13t-38 13.5t-11 36.5z" />
    <glyph glyph-name="ring" unicode="&#x2da;" horiz-adv-x="219" 
d="M31 632q0 35 21 51.5t57 16.5t57.5 -17t21.5 -51q0 -35 -21 -52t-57 -17q-37 0 -58 17t-21 52zM67 632q0 -37 43 -37q20 0 31 9.5t11 27.5q0 17 -11.5 26.5t-31.5 9.5t-31 -9.5t-11 -26.5z" />
    <glyph glyph-name="caron" unicode="&#x2c7;" horiz-adv-x="241" 
d="M210 700l-52 -137h-75l-53 137h55l33 -82h4l33 82h55z" />
    <glyph glyph-name="breve" unicode="&#x2d8;" horiz-adv-x="285" 
d="M90 700q0 -32 11 -55t42 -23q32 0 42.5 23.5t10.5 54.5h59q0 -68 -26.5 -102.5t-85.5 -34.5t-85.5 34.5t-26.5 102.5h59z" />
    <glyph glyph-name="hungarumlaut" unicode="&#x2dd;" horiz-adv-x="262" 
d="M31 563l44 137h60l-55 -137h-49zM127 563l44 137h60l-55 -137h-49z" />
    <glyph glyph-name="dotaccent" unicode="&#x2d9;" horiz-adv-x="159" 
d="M31 633q0 23 10.5 36.5t37.5 13.5t38 -13.5t11 -36.5t-10.5 -36.5t-37.5 -13.5t-38 13.5t-11 36.5z" />
    <glyph glyph-name="ogonek" unicode="&#x2db;" horiz-adv-x="219" 
d="M181 -2v-8q-37 -2 -60.5 -24.5t-23.5 -50.5q0 -22 13.5 -35.5t38.5 -13.5q18 0 39 7v-52q-33 -10 -62 -10q-45 0 -70 22.5t-25 56.5q0 41 39 73.5t111 34.5z" />
    <glyph glyph-name="cedilla" unicode="&#xb8;" horiz-adv-x="247" 
d="M67 -3h43l-5 -42q52 0 81 -20t29 -49q0 -31 -31.5 -54t-86.5 -23q-14 0 -31 1.5t-35 5.5v41q23 -5 42 -5q30 0 50.5 11t20.5 28t-23.5 26.5t-65.5 9.5z" />
    <glyph glyph-name="B" unicode="B" horiz-adv-x="395" 
d="M186 700q86 0 131.5 -44.5t45.5 -129.5v-5q0 -72 -29.5 -112t-71.5 -48v-7q23 -4 44 -17t37 -34.5t25.5 -51t9.5 -67.5v-8q0 -85 -48.5 -130.5t-138.5 -45.5h-163v700h158zM128 400h57q78 0 78 86v40q0 86 -78 86h-57v-212zM128 87h62q83 0 83 89v48q0 89 -85 89h-60
v-226z" />
    <glyph glyph-name="C" unicode="C" horiz-adv-x="403" 
d="M126 163q0 -24 6.5 -40.5t17 -26.5t24.5 -14.5t28 -4.5q15 0 28.5 4.5t24 14.5t17 26.5t6.5 40.5v142h100v-135q0 -46 -13.5 -80t-37 -56.5t-56 -33t-70.5 -10.5t-70 10.5t-55.5 32.5t-36.5 56t-13 81v360q0 47 13 81t36.5 56t55.5 32.5t70 10.5t70.5 -10.5t56 -33
t37 -56t13.5 -80.5v-135h-100v142q0 24 -6.5 40.5t-17 26.5t-24 14.5t-28.5 4.5q-14 0 -28 -4.5t-24.5 -14.5t-17 -26.5t-6.5 -40.5v-374z" />
    <glyph glyph-name="A" unicode="A" horiz-adv-x="385" 
d="M272 700l107 -700h-100l-32 203h-109l-31 -203h-100l108 700h157zM234 290l-38 247h-7l-38 -247h83z" />
    <glyph glyph-name="plusminus" unicode="&#xb1;" horiz-adv-x="423" 
d="M392 301h-141v-136h-80v136h-140v74h140v136h80v-136h141v-74zM392 26h-361v74h361v-74z" />
    <glyph glyph-name="dotlessi" unicode="&#x131;" horiz-adv-x="158" 
d="M128 510v-510h-95v510h95z" />
    <glyph glyph-name="periodcentered" unicode="&#xb7;" horiz-adv-x="174" 
d="M31 374q0 27 14 42.5t42 15.5t42 -15.5t14 -43.5q0 -27 -14 -42.5t-42 -15.5t-42 15.5t-14 43.5z" />
    <glyph glyph-name="ordfeminine" unicode="&#xaa;" horiz-adv-x="265" 
d="M173 624q0 43 -39 43q-40 0 -40 -43v-33h-60v30q0 45 27.5 72t72.5 27t72.5 -27t27.5 -72v-213h-61v37h-5q-25 -43 -71 -43q-31 0 -48.5 20.5t-17.5 52.5v28q0 34 24.5 54t61.5 20h56v47zM173 544h-34q-23 0 -35.5 -9t-12.5 -29v-20q0 -17 9.5 -26t25.5 -9t29 8.5
t18 23.5v61z" />
    <glyph glyph-name="sterling" unicode="&#xa3;" horiz-adv-x="428" 
d="M166 302h192v-72h-192v-15q0 -44 -8.5 -73t-31.5 -55h277v-87h-377v87q14 14 22.5 26.5t13.5 27t7 33t2 42.5v14h-45v72h45v259q0 71 43 110t122 39t123 -47.5t44 -132.5v-135h-95v141q0 42 -18.5 64t-52.5 22q-33 0 -52 -21.5t-19 -60.5v-238z" />
    <glyph glyph-name="ordmasculine" unicode="&#xba;" horiz-adv-x="261" 
d="M31 620q0 45 25.5 72.5t73.5 27.5q47 0 73.5 -27.5t26.5 -72.5v-118q0 -45 -26.5 -72.5t-73.5 -27.5q-48 0 -73.5 27.5t-25.5 72.5v118zM91 500q0 -20 11 -32.5t29 -12.5q17 0 28 12.5t11 32.5v121q0 21 -11 33.5t-28 12.5q-18 0 -29 -12.5t-11 -33.5v-121z" />
    <glyph glyph-name="onesuperior" unicode="&#xb9;" horiz-adv-x="148" 
d="M59 412v243l-2 4h-25v51h86v-298h-59z" />
    <glyph glyph-name="twosuperior" unicode="&#xb2;" horiz-adv-x="246" 
d="M32 637q0 34 24.5 58.5t67.5 24.5q42 0 66.5 -24t24.5 -59v-12q0 -24 -6.5 -39.5t-17 -26t-23 -17t-24.5 -12.5h-2q-18 -11 -33 -23.5t-15 -36.5v-6h119v-52h-179v45q0 40 17.5 60.5t44.5 35.5l4 2q30 16 43.5 29t13.5 36v11q0 18 -9.5 27.5t-24.5 9.5t-24 -9.5t-9 -27.5
v-37h-58v43z" />
    <glyph glyph-name="threesuperior" unicode="&#xb3;" horiz-adv-x="233" 
d="M152 637q0 15 -9.5 23.5t-26.5 8.5q-35 0 -35 -32v-24h-58v30q0 36 24 56.5t70 20.5q45 0 68.5 -20t23.5 -58v-5q0 -32 -15 -48.5t-36 -19.5v-5q22 -3 36.5 -20t14.5 -49v-6q0 -37 -23 -57t-69 -20q-45 0 -69.5 20t-24.5 57v30h58v-24q0 -32 35 -32q17 0 26.5 8.5
t9.5 23.5v7q0 25 -10.5 35t-40.5 10h-12v38h12q29 0 40 10.5t11 34.5v7z" />
    <glyph glyph-name="onequarter" unicode="&#xbc;" horiz-adv-x="443" 
d="M151 0h-58l122 720h59zM59 412v243l-2 4h-25v51h86v-298h-59zM412 298v-298h-58v87h-112v211h58v-159h54v159h58z" />
    <glyph glyph-name="threequarters" unicode="&#xbe;" horiz-adv-x="518" 
d="M231 0h-58l122 720h59zM160 637q0 15 -9.5 23.5t-26.5 8.5q-35 0 -35 -32v-24h-58v30q0 36 24 56.5t70 20.5q45 0 68.5 -20t23.5 -58v-5q0 -32 -15 -48.5t-36 -19.5v-5q22 -3 36.5 -20t14.5 -49v-6q0 -37 -23 -57t-69 -20q-45 0 -69.5 20t-24.5 57v30h58v-24
q0 -32 35 -32q17 0 26.5 8.5t9.5 23.5v7q0 25 -10.5 35t-40.5 10h-12v38h12q29 0 40 10.5t11 34.5v7zM487 298v-298h-58v87h-112v211h58v-159h54v159h58z" />
    <glyph glyph-name="onehalf" unicode="&#xbd;" horiz-adv-x="441" 
d="M151 0h-58l122 720h59zM59 412v243l-2 4h-25v51h86v-298h-59zM227 225q0 34 24.5 58.5t67.5 24.5q42 0 66.5 -24t24.5 -59v-12q0 -24 -6.5 -39.5t-17 -26t-23 -17t-24.5 -12.5h-2q-18 -11 -33 -23.5t-15 -36.5v-6h119v-52h-179v45q0 40 17.5 60.5t44.5 35.5l4 2
q30 16 43.5 29t13.5 36v11q0 18 -9.5 27.5t-24.5 9.5t-24 -9.5t-9 -27.5v-37h-58v43z" />
    <glyph glyph-name="macron" unicode="&#xaf;" horiz-adv-x="266" 
d="M236 594h-205v74h205v-74z" />
    <glyph glyph-name="E" unicode="E" horiz-adv-x="299" 
d="M128 613v-205h145v-87h-145v-234h155v-87h-255v700h250v-87h-150z" />
    <glyph glyph-name="semicolon" unicode=";" horiz-adv-x="174" 
d="M31 458q0 27 14 42.5t42 15.5t42 -15.5t14 -43.5q0 -27 -14 -42.5t-42 -15.5t-42 15.5t-14 43.5zM52 146h91l-75 -252h-63z" />
    <glyph glyph-name="florin" unicode="&#x192;" horiz-adv-x="335" 
d="M114 568q0 41 10 69t27.5 45.5t42 25t53.5 7.5q37 0 76 -10l-3 -81q-22 6 -44 6q-28 0 -47.5 -14.5t-19.5 -52.5v-53h111v-82h-111v-491q0 -41 -10 -69.5t-27.5 -45.5t-42 -24.5t-53.5 -7.5q-35 0 -76 9l3 81l22 -4t22 -2q28 0 47.5 15t19.5 53v486h-51v82h51v58z" />
    <glyph glyph-name="uni2074" unicode="&#x2074;" horiz-adv-x="233" 
d="M202 710v-298h-58v87h-112v211h58v-159h54v159h58z" />
    <glyph glyph-name="uni03BC" unicode="&#x3bc;" horiz-adv-x="535" 
d="M32 700h474v-700h-474v700zM269 391l156 259h-313zM82 83l162 267l-162 267v-534zM456 83v534l-162 -267zM112 50h313l-156 259z" />
    <glyph glyph-name="eth" unicode="&#xf0;" 
d="M23 357q0 37 10.5 67t28.5 51.5t42 33t50 11.5q32 0 57.5 -17.5t39.5 -55.5l6 2q-9 55 -28 96t-51 73l-80 -53l-16 23l73 49q-22 17 -49.5 31t-61.5 26l11 26q79 -21 136 -58l76 50l16 -23l-66 -45q123 -96 123 -290v-198q0 -73 -42.5 -119.5t-119.5 -46.5
q-73 0 -114 42.5t-41 111.5v213zM118 151q0 -36 17.5 -57.5t46.5 -21.5t46 21.5t17 57.5v208q0 37 -17.5 58.5t-45.5 21.5q-29 0 -46.5 -21.5t-17.5 -58.5v-208z" />
    <glyph glyph-name="germandbls" unicode="&#xdf;" horiz-adv-x="395" 
d="M28 529q0 85 39 128t117 43h12q86 0 126.5 -44.5t40.5 -129.5v-4q0 -73 -29.5 -112.5t-71.5 -48.5v-7q23 -4 44 -17t37 -34.5t25.5 -51t9.5 -67.5v-8q0 -85 -46 -130.5t-135 -45.5h-23v87h23q82 0 82 97v33q0 45 -21 70.5t-63 25.5h-16v88h13q77 0 77 93v30
q0 47 -15.5 68t-53.5 21h-6q-29 0 -47.5 -18.5t-18.5 -65.5v-529h-100v529z" />
    <glyph glyph-name="currency" unicode="&#xa4;" horiz-adv-x="535" 
d="M32 700h474v-700h-474v700zM269 391l156 259h-313zM82 83l162 267l-162 267v-534zM456 83v534l-162 -267zM112 50h313l-156 259z" />
    <glyph glyph-name="Agrave" unicode="&#xc0;" horiz-adv-x="385" 
d="M272 700l107 -700h-100l-32 203h-109l-31 -203h-100l108 700h157zM234 290l-38 247h-7l-38 -247h83zM163 740l-55 137h75l44 -137h-64z" />
    <glyph glyph-name="Aacute" unicode="&#xc1;" horiz-adv-x="385" 
d="M272 700l107 -700h-100l-32 203h-109l-31 -203h-100l108 700h157zM234 290l-38 247h-7l-38 -247h83zM159 740l44 137h75l-55 -137h-64z" />
    <glyph glyph-name="Acircumflex" unicode="&#xc2;" horiz-adv-x="385" 
d="M272 700l107 -700h-100l-32 203h-109l-31 -203h-100l108 700h157zM234 290l-38 247h-7l-38 -247h83zM103 740l52 137h75l52 -137h-55l-33 82h-4l-32 -82h-55z" />
    <glyph glyph-name="Atilde" unicode="&#xc3;" horiz-adv-x="385" 
d="M272 700l107 -700h-100l-32 203h-109l-31 -203h-100l108 700h157zM234 290l-38 247h-7l-38 -247h83zM287 846q0 -106 -49 -106q-29 0 -53 41l-4 6q-15 28 -33 28q-21 0 -21 -46v-26h-29v25q0 53 12.5 81t36.5 28q27 0 49 -38l4 -6q17 -30 36 -30q22 0 22 43v28h29v-28z
" />
    <glyph glyph-name="Adieresis" unicode="&#xc4;" horiz-adv-x="385" 
d="M272 700l107 -700h-100l-32 203h-109l-31 -203h-100l108 700h157zM234 290l-38 247h-7l-38 -247h83zM79 810q0 23 10.5 36.5t37.5 13.5t38 -14t11 -37t-10.5 -36t-37.5 -13t-38 13.5t-11 36.5zM208 810q0 23 10.5 36.5t37.5 13.5t38 -14t11 -37t-10.5 -36t-37.5 -13
t-38 13.5t-11 36.5z" />
    <glyph glyph-name="Aring" unicode="&#xc5;" horiz-adv-x="385" 
d="M272 700l107 -700h-100l-32 203h-109l-31 -203h-100l108 700h157zM234 290l-38 247h-7l-38 -247h83zM114 809q0 35 21 51.5t57 16.5t57.5 -17t21.5 -51q0 -35 -21 -52t-57 -17q-37 0 -58 17t-21 52zM150 809q0 -37 43 -37q20 0 31 9.5t11 27.5q0 17 -11.5 26.5t-31.5 9.5
t-31 -9.5t-11 -26.5z" />
    <glyph glyph-name="AE" unicode="&#xc6;" horiz-adv-x="547" 
d="M377 613v-205h145v-87h-145v-234h155v-87h-255v203h-109l-61 -203h-100l187 700h333v-87h-150zM277 290v247h-9l-74 -247h83z" />
    <glyph glyph-name="Ccedilla" unicode="&#xc7;" horiz-adv-x="403" 
d="M126 163q0 -24 6.5 -40.5t17 -26.5t24.5 -14.5t28 -4.5q15 0 28.5 4.5t24 14.5t17 26.5t6.5 40.5v142h100v-135q0 -46 -13.5 -80t-37 -56.5t-56 -33t-70.5 -10.5t-70 10.5t-55.5 32.5t-36.5 56t-13 81v360q0 47 13 81t36.5 56t55.5 32.5t70 10.5t70.5 -10.5t56 -33
t37 -56t13.5 -80.5v-135h-100v142q0 24 -6.5 40.5t-17 26.5t-24 14.5t-28.5 4.5q-14 0 -28 -4.5t-24.5 -14.5t-17 -26.5t-6.5 -40.5v-374zM181 -3h43l-5 -42q52 0 81 -20t29 -49q0 -31 -31.5 -54t-86.5 -23q-14 0 -31 1.5t-35 5.5v41q23 -5 42 -5q30 0 50.5 11t20.5 28
t-23.5 26.5t-65.5 9.5z" />
    <glyph glyph-name="Eth" unicode="&#xd0;" horiz-adv-x="414" 
d="M211 700q38 0 70.5 -10t56 -31t37 -54t13.5 -79v-353q0 -46 -13.5 -79t-37 -54t-56 -30.5t-70.5 -9.5h-168v315h-35v67h35v318h168zM144 382h59v-67h-59v-228h66q15 0 29.5 4t25 14t17 26.5t6.5 40.5v356q0 24 -6.5 40.5t-17 26.5t-25 14t-29.5 4h-66v-231z" />
    <glyph glyph-name="ethbar" horiz-adv-x="256" 
d="M226 306h-195v67h195v-67z" />
    <glyph glyph-name="Dcroat" unicode="&#x110;" horiz-adv-x="414" 
d="M211 700q38 0 70.5 -10t56 -31t37 -54t13.5 -79v-353q0 -46 -13.5 -79t-37 -54t-56 -30.5t-70.5 -9.5h-168v315h-35v67h35v318h168zM144 382h59v-67h-59v-228h66q15 0 29.5 4t25 14t17 26.5t6.5 40.5v356q0 24 -6.5 40.5t-17 26.5t-25 14t-29.5 4h-66v-231z" />
    <glyph glyph-name="Egrave" unicode="&#xc8;" horiz-adv-x="299" 
d="M128 613v-205h145v-87h-145v-234h155v-87h-255v700h250v-87h-150zM126 740l-55 137h75l44 -137h-64z" />
    <glyph glyph-name="Eacute" unicode="&#xc9;" horiz-adv-x="299" 
d="M128 613v-205h145v-87h-145v-234h155v-87h-255v700h250v-87h-150zM122 740l44 137h75l-55 -137h-64z" />
    <glyph glyph-name="Ecircumflex" unicode="&#xca;" horiz-adv-x="299" 
d="M128 613v-205h145v-87h-145v-234h155v-87h-255v700h250v-87h-150zM66 740l52 137h75l52 -137h-55l-33 82h-4l-32 -82h-55z" />
    <glyph glyph-name="Edieresis" unicode="&#xcb;" horiz-adv-x="299" 
d="M128 613v-205h145v-87h-145v-234h155v-87h-255v700h250v-87h-150zM42 810q0 23 10.5 36.5t37.5 13.5t38 -14t11 -37t-10.5 -36t-37.5 -13t-38 13.5t-11 36.5zM171 810q0 23 10.5 36.5t37.5 13.5t38 -14t11 -37t-10.5 -36t-37.5 -13t-38 13.5t-11 36.5z" />
    <glyph glyph-name="Igrave" unicode="&#xcc;" horiz-adv-x="156" 
d="M128 700v-700h-100v700h100zM48 740l-55 137h75l44 -137h-64z" />
    <glyph glyph-name="Iacute" unicode="&#xcd;" horiz-adv-x="156" 
d="M128 700v-700h-100v700h100zM44 740l44 137h75l-55 -137h-64z" />
    <glyph glyph-name="Icircumflex" unicode="&#xce;" horiz-adv-x="156" 
d="M128 700v-700h-100v700h100zM-11 740l52 137h75l52 -137h-55l-33 82h-4l-32 -82h-55z" />
    <glyph glyph-name="Idieresis" unicode="&#xcf;" horiz-adv-x="156" 
d="M128 700v-700h-100v700h100zM-36 810q0 23 10.5 36.5t37.5 13.5t38 -14t11 -37t-10.5 -36t-37.5 -13t-38 13.5t-11 36.5zM93 810q0 23 10.5 36.5t37.5 13.5t38 -14t11 -37t-10.5 -36t-37.5 -13t-38 13.5t-11 36.5z" />
    <glyph glyph-name="Lslash" unicode="&#x141;" horiz-adv-x="285" 
d="M128 700v-613h150v-87h-250v700h100zM202 376l-218 -71l-14 63l218 71z" />
    <glyph glyph-name="crossbar" horiz-adv-x="308" 
d="M269 351l-218 -71l-14 63l218 71z" />
    <glyph glyph-name="Ntilde" unicode="&#xd1;" horiz-adv-x="406" 
d="M377 700v-700h-116l-148 534h-6l21 -534h-100v700h116l150 -536h6l-23 536h100zM297 846q0 -106 -49 -106q-29 0 -53 41l-4 6q-15 28 -33 28q-21 0 -21 -46v-26h-29v25q0 53 12.5 81t36.5 28q27 0 49 -38l4 -6q17 -30 36 -30q22 0 22 43v28h29v-28z" />
    <glyph glyph-name="Ograve" unicode="&#xd2;" horiz-adv-x="403" 
d="M27 530q0 47 13 81t36.5 56t55.5 32.5t69 10.5q38 0 70.5 -10.5t56.5 -33t37.5 -56t13.5 -80.5v-360q0 -46 -13.5 -80t-37.5 -56.5t-56.5 -33t-70.5 -10.5q-37 0 -69 10.5t-55.5 32.5t-36.5 56t-13 81v360zM127 163q0 -24 6.5 -40.5t17 -26.5t24 -14.5t28.5 -4.5
q14 0 28 4.5t24.5 14.5t17 26.5t6.5 40.5v374q0 24 -6.5 40.5t-17 26.5t-24.5 14.5t-28 4.5q-15 0 -28.5 -4.5t-24 -14.5t-17 -26.5t-6.5 -40.5v-374zM172 740l-55 137h75l44 -137h-64z" />
    <glyph glyph-name="Oacute" unicode="&#xd3;" horiz-adv-x="403" 
d="M27 530q0 47 13 81t36.5 56t55.5 32.5t69 10.5q38 0 70.5 -10.5t56.5 -33t37.5 -56t13.5 -80.5v-360q0 -46 -13.5 -80t-37.5 -56.5t-56.5 -33t-70.5 -10.5q-37 0 -69 10.5t-55.5 32.5t-36.5 56t-13 81v360zM127 163q0 -24 6.5 -40.5t17 -26.5t24 -14.5t28.5 -4.5
q14 0 28 4.5t24.5 14.5t17 26.5t6.5 40.5v374q0 24 -6.5 40.5t-17 26.5t-24.5 14.5t-28 4.5q-15 0 -28.5 -4.5t-24 -14.5t-17 -26.5t-6.5 -40.5v-374zM168 740l44 137h75l-55 -137h-64z" />
    <glyph glyph-name="Ocircumflex" unicode="&#xd4;" horiz-adv-x="403" 
d="M27 530q0 47 13 81t36.5 56t55.5 32.5t69 10.5q38 0 70.5 -10.5t56.5 -33t37.5 -56t13.5 -80.5v-360q0 -46 -13.5 -80t-37.5 -56.5t-56.5 -33t-70.5 -10.5q-37 0 -69 10.5t-55.5 32.5t-36.5 56t-13 81v360zM127 163q0 -24 6.5 -40.5t17 -26.5t24 -14.5t28.5 -4.5
q14 0 28 4.5t24.5 14.5t17 26.5t6.5 40.5v374q0 24 -6.5 40.5t-17 26.5t-24.5 14.5t-28 4.5q-15 0 -28.5 -4.5t-24 -14.5t-17 -26.5t-6.5 -40.5v-374zM112 740l52 137h75l52 -137h-55l-33 82h-4l-32 -82h-55z" />
    <glyph glyph-name="Otilde" unicode="&#xd5;" horiz-adv-x="403" 
d="M27 530q0 47 13 81t36.5 56t55.5 32.5t69 10.5q38 0 70.5 -10.5t56.5 -33t37.5 -56t13.5 -80.5v-360q0 -46 -13.5 -80t-37.5 -56.5t-56.5 -33t-70.5 -10.5q-37 0 -69 10.5t-55.5 32.5t-36.5 56t-13 81v360zM127 163q0 -24 6.5 -40.5t17 -26.5t24 -14.5t28.5 -4.5
q14 0 28 4.5t24.5 14.5t17 26.5t6.5 40.5v374q0 24 -6.5 40.5t-17 26.5t-24.5 14.5t-28 4.5q-15 0 -28.5 -4.5t-24 -14.5t-17 -26.5t-6.5 -40.5v-374zM296 846q0 -106 -49 -106q-29 0 -53 41l-4 6q-15 28 -33 28q-21 0 -21 -46v-26h-29v25q0 53 12.5 81t36.5 28q27 0 49 -38
l4 -6q17 -30 36 -30q22 0 22 43v28h29v-28z" />
    <glyph glyph-name="Odieresis" unicode="&#xd6;" horiz-adv-x="403" 
d="M27 530q0 47 13 81t36.5 56t55.5 32.5t69 10.5q38 0 70.5 -10.5t56.5 -33t37.5 -56t13.5 -80.5v-360q0 -46 -13.5 -80t-37.5 -56.5t-56.5 -33t-70.5 -10.5q-37 0 -69 10.5t-55.5 32.5t-36.5 56t-13 81v360zM127 163q0 -24 6.5 -40.5t17 -26.5t24 -14.5t28.5 -4.5
q14 0 28 4.5t24.5 14.5t17 26.5t6.5 40.5v374q0 24 -6.5 40.5t-17 26.5t-24.5 14.5t-28 4.5q-15 0 -28.5 -4.5t-24 -14.5t-17 -26.5t-6.5 -40.5v-374zM88 810q0 23 10.5 36.5t37.5 13.5t38 -14t11 -37t-10.5 -36t-37.5 -13t-38 13.5t-11 36.5zM217 810q0 23 10.5 36.5
t37.5 13.5t38 -14t11 -37t-10.5 -36t-37.5 -13t-38 13.5t-11 36.5z" />
    <glyph glyph-name="Oslash" unicode="&#xd8;" horiz-adv-x="404" 
d="M27 530q0 47 13 81t36.5 56t55.5 32.5t69 10.5q39 0 72.5 -11.5t57.5 -35.5l22 47l25 -12l-27 -59q13 -21 20.5 -48t7.5 -61v-360q0 -46 -13.5 -80t-37.5 -56.5t-56.5 -33t-70.5 -10.5q-39 0 -72 11.5t-56 34.5l-21 -46l-26 12l27 59q-26 43 -26 109v360zM127 220
l151 329q-3 41 -25.5 57.5t-49.5 16.5q-15 0 -28.5 -4.5t-24 -14.5t-17 -26.5t-6.5 -40.5v-317zM127 153q3 -42 25.5 -59t50.5 -17q14 0 28 4.5t24.5 14.5t17 26.5t6.5 40.5v319z" />
    <glyph glyph-name="OE" unicode="&#x152;" horiz-adv-x="524" 
d="M355 613v-205h145v-87h-145v-234h155v-87h-309q-37 0 -69 10.5t-55.5 32.5t-36.5 56.5t-13 81.5v339q0 47 13 81t36.5 56t55.5 32.5t69 10.5h304v-87h-150zM127 174q0 -49 23.5 -68t53.5 -19h51v526h-51q-30 0 -53.5 -18.5t-23.5 -67.5v-353z" />
    <glyph glyph-name="Scaron" unicode="&#x160;" horiz-adv-x="403" 
d="M276 445v92q0 41 -19.5 63.5t-54.5 22.5t-54 -22.5t-19 -63.5v-39q0 -20 4 -35.5t15 -28t30 -24t49 -23.5l40 -15q61 -23 86 -64.5t25 -118.5v-19q0 -85 -46.5 -132.5t-130.5 -47.5t-129 47t-45 133v85h100v-92q0 -41 20 -63.5t55 -22.5q36 0 56 22.5t20 63.5v42
q0 20 -4.5 35.5t-15 28t-29 23.5t-47.5 23l-44 16q-59 23 -84 65.5t-25 118.5v15q0 87 45 133.5t127 46.5q83 0 129 -47.5t46 -132.5v-85h-100zM292 878l-52 -137h-75l-53 137h55l33 -82h4l33 82h55z" />
    <glyph glyph-name="Ugrave" unicode="&#xd9;" horiz-adv-x="393" 
d="M127 700v-537q0 -48 22 -67t49 -19t49 19t22 67v537h100v-530q0 -46 -13 -80t-36 -56.5t-54.5 -33t-69.5 -10.5q-37 0 -68 10.5t-53.5 32.5t-35 56t-12.5 81v530h100zM169 740l-55 137h75l44 -137h-64z" />
    <glyph glyph-name="Uacute" unicode="&#xda;" horiz-adv-x="393" 
d="M127 700v-537q0 -48 22 -67t49 -19t49 19t22 67v537h100v-530q0 -46 -13 -80t-36 -56.5t-54.5 -33t-69.5 -10.5q-37 0 -68 10.5t-53.5 32.5t-35 56t-12.5 81v530h100zM165 740l44 137h75l-55 -137h-64z" />
    <glyph glyph-name="Ucircumflex" unicode="&#xdb;" horiz-adv-x="393" 
d="M127 700v-537q0 -48 22 -67t49 -19t49 19t22 67v537h100v-530q0 -46 -13 -80t-36 -56.5t-54.5 -33t-69.5 -10.5q-37 0 -68 10.5t-53.5 32.5t-35 56t-12.5 81v530h100zM110 740l52 137h75l52 -137h-55l-33 82h-4l-32 -82h-55z" />
    <glyph glyph-name="Udieresis" unicode="&#xdc;" horiz-adv-x="393" 
d="M127 700v-537q0 -48 22 -67t49 -19t49 19t22 67v537h100v-530q0 -46 -13 -80t-36 -56.5t-54.5 -33t-69.5 -10.5q-37 0 -68 10.5t-53.5 32.5t-35 56t-12.5 81v530h100zM85 810q0 23 10.5 36.5t37.5 13.5t38 -14t11 -37t-10.5 -36t-37.5 -13t-38 13.5t-11 36.5zM214 810
q0 23 10.5 36.5t37.5 13.5t38 -14t11 -37t-10.5 -36t-37.5 -13t-38 13.5t-11 36.5z" />
    <glyph glyph-name="Ydieresis" unicode="&#x178;" horiz-adv-x="354" 
d="M107 700l66 -360h7l66 360h100l-121 -501v-199h-100v199l-119 501h101zM63 810q0 23 10.5 36.5t37.5 13.5t38 -14t11 -37t-10.5 -36t-37.5 -13t-38 13.5t-11 36.5zM192 810q0 23 10.5 36.5t37.5 13.5t38 -14t11 -37t-10.5 -36t-37.5 -13t-38 13.5t-11 36.5z" />
    <glyph glyph-name="Yacute" unicode="&#xdd;" horiz-adv-x="354" 
d="M107 700l66 -360h7l66 360h100l-121 -501v-199h-100v199l-119 501h101zM143 740l44 137h75l-55 -137h-64z" />
    <glyph glyph-name="Zcaron" unicode="&#x17d;" horiz-adv-x="352" 
d="M327 700v-87l-209 -521l4 -5h216v-87h-323v87l209 521l-5 5h-194v87h302zM266 878l-52 -137h-75l-53 137h55l33 -82h4l33 82h55z" />
    <glyph glyph-name="fi" unicode="&#xfb01;" horiz-adv-x="403" 
d="M50 567q0 41 9.5 69.5t27 46t41 25t51.5 7.5q36 0 75 -10l-3 -81q-22 6 -42 6q-26 0 -45 -14.5t-19 -52.5v-53h106v-82h-106v-428h-95v428h-50v82h50v57zM266 632q0 53 58 53q28 0 43.5 -13.5t15.5 -39.5t-15.5 -40t-43.5 -14q-58 0 -58 54zM373 510v-510h-96v510h96z
" />
    <glyph glyph-name="fl" unicode="&#xfb02;" horiz-adv-x="388" 
d="M50 567q0 41 9.5 69.5t27 46t41 25t51.5 7.5q36 0 75 -10l-3 -81q-22 6 -42 6q-26 0 -45 -14.5t-19 -52.5v-53h106v-82h-106v-428h-95v428h-50v82h50v57zM265 720h95v-720h-95v720z" />
    <glyph glyph-name="agrave" unicode="&#xe0;" horiz-adv-x="363" 
d="M246 359q0 36 -17 58t-44 22q-28 0 -44.5 -22t-16.5 -58v-54h-95v49q0 76 41.5 121t113.5 45t114.5 -45t42.5 -121v-353h-95v60h-3q-41 -71 -111 -71q-49 0 -78.5 33.5t-29.5 87.5v46q0 57 38 89t108 32h76v81zM246 228h-39q-88 0 -88 -65v-33q0 -30 15 -47t42 -17
q24 0 42.5 14t27.5 40v108zM154 549l-55 137h75l44 -137h-64z" />
    <glyph glyph-name="aacute" unicode="&#xe1;" horiz-adv-x="363" 
d="M246 359q0 36 -17 58t-44 22q-28 0 -44.5 -22t-16.5 -58v-54h-95v49q0 76 41.5 121t113.5 45t114.5 -45t42.5 -121v-353h-95v60h-3q-41 -71 -111 -71q-49 0 -78.5 33.5t-29.5 87.5v46q0 57 38 89t108 32h76v81zM246 228h-39q-88 0 -88 -65v-33q0 -30 15 -47t42 -17
q24 0 42.5 14t27.5 40v108zM150 549l44 137h75l-55 -137h-64z" />
    <glyph glyph-name="acircumflex" unicode="&#xe2;" horiz-adv-x="363" 
d="M246 359q0 36 -17 58t-44 22q-28 0 -44.5 -22t-16.5 -58v-54h-95v49q0 76 41.5 121t113.5 45t114.5 -45t42.5 -121v-353h-95v60h-3q-41 -71 -111 -71q-49 0 -78.5 33.5t-29.5 87.5v46q0 57 38 89t108 32h76v81zM246 228h-39q-88 0 -88 -65v-33q0 -30 15 -47t42 -17
q24 0 42.5 14t27.5 40v108zM94 549l52 137h75l52 -137h-55l-33 82h-4l-32 -82h-55z" />
    <glyph glyph-name="atilde" unicode="&#xe3;" horiz-adv-x="363" 
d="M246 359q0 36 -17 58t-44 22q-28 0 -44.5 -22t-16.5 -58v-54h-95v49q0 76 41.5 121t113.5 45t114.5 -45t42.5 -121v-353h-95v60h-3q-41 -71 -111 -71q-49 0 -78.5 33.5t-29.5 87.5v46q0 57 38 89t108 32h76v81zM246 228h-39q-88 0 -88 -65v-33q0 -30 15 -47t42 -17
q24 0 42.5 14t27.5 40v108zM278 655q0 -106 -49 -106q-29 0 -53 41l-4 6q-15 28 -33 28q-21 0 -21 -46v-26h-29v25q0 53 12.5 81t36.5 28q27 0 49 -38l4 -6q17 -30 36 -30q22 0 22 43v28h29v-28z" />
    <glyph glyph-name="adieresis" unicode="&#xe4;" horiz-adv-x="363" 
d="M246 359q0 36 -17 58t-44 22q-28 0 -44.5 -22t-16.5 -58v-54h-95v49q0 76 41.5 121t113.5 45t114.5 -45t42.5 -121v-353h-95v60h-3q-41 -71 -111 -71q-49 0 -78.5 33.5t-29.5 87.5v46q0 57 38 89t108 32h76v81zM246 228h-39q-88 0 -88 -65v-33q0 -30 15 -47t42 -17
q24 0 42.5 14t27.5 40v108zM70 619q0 23 10.5 36.5t37.5 13.5t38 -14t11 -37t-10.5 -36t-37.5 -13t-38 13.5t-11 36.5zM199 619q0 23 10.5 36.5t37.5 13.5t38 -14t11 -37t-10.5 -36t-37.5 -13t-38 13.5t-11 36.5z" />
    <glyph glyph-name="aring" unicode="&#xe5;" horiz-adv-x="363" 
d="M246 359q0 36 -17 58t-44 22q-28 0 -44.5 -22t-16.5 -58v-54h-95v49q0 76 41.5 121t113.5 45t114.5 -45t42.5 -121v-353h-95v60h-3q-41 -71 -111 -71q-49 0 -78.5 33.5t-29.5 87.5v46q0 57 38 89t108 32h76v81zM246 228h-39q-88 0 -88 -65v-33q0 -30 15 -47t42 -17
q24 0 42.5 14t27.5 40v108zM105 618q0 35 21 51.5t57 16.5t57.5 -17t21.5 -51q0 -35 -21 -52t-57 -17q-37 0 -58 17t-21 52zM141 618q0 -37 43 -37q20 0 31 9.5t11 27.5q0 17 -11.5 26.5t-31.5 9.5t-31 -9.5t-11 -26.5z" />
    <glyph glyph-name="ae" unicode="&#xe6;" horiz-adv-x="585" 
d="M246 359q0 36 -17 58t-44 22q-28 0 -44.5 -22t-16.5 -58v-54h-95v49q0 76 41.5 121t113.5 45q35 0 61.5 -15t43.5 -42h7q16 27 43 42t64 15q72 0 116 -45t44 -121v-115h-222v-88q0 -35 17 -57t46 -22t46.5 22t17.5 57v40h95v-35q0 -37 -11.5 -68t-32.5 -52.5t-50.5 -33.5
t-65.5 -12q-54 0 -90 26t-52 71h-7q-40 -97 -122 -97q-49 0 -78.5 33t-29.5 88v46q0 57 38 89t108 32h76v81zM341 293h127v66q0 36 -17.5 58t-46.5 22t-46 -22t-17 -58v-66zM246 228h-39q-88 0 -88 -65v-33q0 -30 15 -47.5t42 -17.5q24 0 42.5 14.5t27.5 40.5v108z" />
    <glyph glyph-name="ccedilla" unicode="&#xe7;" 
d="M118 151q0 -36 17.5 -57.5t46.5 -21.5t46 21.5t17 57.5v70h95v-65q0 -76 -43.5 -121t-115.5 -45q-73 0 -115.5 45t-42.5 121v198q0 76 42.5 121t114.5 45q73 0 116.5 -45.5t43.5 -120.5v-65h-95v70q0 36 -17.5 57.5t-45.5 21.5q-29 0 -46.5 -21.5t-17.5 -57.5v-208z
M161 -3h43l-5 -42q52 0 81 -20t29 -49q0 -31 -31.5 -54t-86.5 -23q-14 0 -31 1.5t-35 5.5v41q23 -5 42 -5q30 0 50.5 11t20.5 28t-23.5 26.5t-65.5 9.5z" />
    <glyph glyph-name="dcroat" unicode="&#x111;" horiz-adv-x="363" 
d="M245 0v64h-7q-16 -35 -43 -54.5t-59 -19.5q-23 0 -43.5 10.5t-36 31t-24.5 49.5t-9 65v235q0 66 32.5 102.5t79.5 36.5q33 0 61 -18.5t42 -53.5l7 1v271h95v-720h-95zM245 384q-8 24 -25.5 38.5t-40.5 14.5q-27 0 -44 -21t-17 -55v-211q0 -33 17 -54.5t43 -21.5
q23 0 41 15t26 40v255zM383 584h-225v67h225v-67z" />
    <glyph glyph-name="ethbar.case" horiz-adv-x="286" 
d="M256 306h-225v67h225v-67z" />
    <glyph glyph-name="egrave" unicode="&#xe8;" 
d="M118 151q0 -35 17.5 -57t46.5 -22t46 22t17 57v40h95v-35q0 -75 -43.5 -120.5t-115.5 -45.5q-73 0 -115.5 45t-42.5 121v198q0 76 42.5 121t114.5 45q73 0 116.5 -45.5t43.5 -120.5v-123h-222v-80zM118 285h127v74q0 36 -17.5 57.5t-45.5 21.5q-29 0 -46.5 -21.5
t-17.5 -57.5v-74zM152 549l-55 137h75l44 -137h-64z" />
    <glyph glyph-name="eacute" unicode="&#xe9;" 
d="M118 151q0 -35 17.5 -57t46.5 -22t46 22t17 57v40h95v-35q0 -75 -43.5 -120.5t-115.5 -45.5q-73 0 -115.5 45t-42.5 121v198q0 76 42.5 121t114.5 45q73 0 116.5 -45.5t43.5 -120.5v-123h-222v-80zM118 285h127v74q0 36 -17.5 57.5t-45.5 21.5q-29 0 -46.5 -21.5
t-17.5 -57.5v-74zM148 549l44 137h75l-55 -137h-64z" />
    <glyph glyph-name="ecircumflex" unicode="&#xea;" 
d="M118 151q0 -35 17.5 -57t46.5 -22t46 22t17 57v40h95v-35q0 -75 -43.5 -120.5t-115.5 -45.5q-73 0 -115.5 45t-42.5 121v198q0 76 42.5 121t114.5 45q73 0 116.5 -45.5t43.5 -120.5v-123h-222v-80zM118 285h127v74q0 36 -17.5 57.5t-45.5 21.5q-29 0 -46.5 -21.5
t-17.5 -57.5v-74zM92 549l52 137h75l52 -137h-55l-33 82h-4l-32 -82h-55z" />
    <glyph glyph-name="edieresis" unicode="&#xeb;" 
d="M118 151q0 -35 17.5 -57t46.5 -22t46 22t17 57v40h95v-35q0 -75 -43.5 -120.5t-115.5 -45.5q-73 0 -115.5 45t-42.5 121v198q0 76 42.5 121t114.5 45q73 0 116.5 -45.5t43.5 -120.5v-123h-222v-80zM118 285h127v74q0 36 -17.5 57.5t-45.5 21.5q-29 0 -46.5 -21.5
t-17.5 -57.5v-74zM68 619q0 23 10.5 36.5t37.5 13.5t38 -14t11 -37t-10.5 -36t-37.5 -13t-38 13.5t-11 36.5zM197 619q0 23 10.5 36.5t37.5 13.5t38 -14t11 -37t-10.5 -36t-37.5 -13t-38 13.5t-11 36.5z" />
    <glyph glyph-name="igrave" unicode="&#xec;" horiz-adv-x="158" 
d="M128 510v-510h-95v510h95zM49 550l-55 137h75l44 -137h-64z" />
    <glyph glyph-name="iacute" unicode="&#xed;" horiz-adv-x="158" 
d="M128 510v-510h-95v510h95zM45 550l44 137h75l-55 -137h-64z" />
    <glyph glyph-name="icircumflex" unicode="&#xee;" horiz-adv-x="158" 
d="M128 510v-510h-95v510h95zM-10 550l52 137h75l52 -137h-55l-33 82h-4l-32 -82h-55z" />
    <glyph glyph-name="idieresis" unicode="&#xef;" horiz-adv-x="241" 
d="M170 510v-510h-95v510h95zM7 620q0 23 10.5 36.5t37.5 13.5t38 -14t11 -37t-10.5 -36t-37.5 -13t-38 13.5t-11 36.5zM136 620q0 23 10.5 36.5t37.5 13.5t38 -14t11 -37t-10.5 -36t-37.5 -13t-38 13.5t-11 36.5z" />
    <glyph glyph-name="lslash" unicode="&#x142;" horiz-adv-x="151" 
d="M28 720h95v-720h-95v720zM173 348l-190 -59l-14 64l190 58z" />
    <glyph glyph-name="crossbar.case" horiz-adv-x="308" 
d="M251 350l-190 -59l-14 64l190 58z" />
    <glyph glyph-name="ntilde" unicode="&#xf1;" horiz-adv-x="366" 
d="M26 510h95v-71h7q17 39 44 60t61 21q46 0 77.5 -37.5t31.5 -108.5v-374h-95v362q0 33 -16 54t-41 21q-23 0 -41.5 -17t-27.5 -45v-375h-95v510zM280 655q0 -106 -49 -106q-29 0 -53 41l-4 6q-15 28 -33 28q-21 0 -21 -46v-26h-29v25q0 53 12.5 81t36.5 28q27 0 49 -38
l4 -6q17 -30 36 -30q22 0 22 43v28h29v-28z" />
    <glyph glyph-name="ograve" unicode="&#xf2;" 
d="M24 354q0 74 41 120t116 46q38 0 67.5 -12.5t50 -34.5t31.5 -52.5t11 -66.5v-198q0 -36 -11 -66.5t-31.5 -52.5t-50 -34.5t-67.5 -12.5q-75 0 -116 46t-41 120v198zM119 151q0 -36 17 -57.5t46 -21.5t46.5 21.5t17.5 57.5v208q0 36 -17.5 57.5t-46.5 21.5t-46 -21.5
t-17 -57.5v-208zM152 549l-55 137h75l44 -137h-64z" />
    <glyph glyph-name="oacute" unicode="&#xf3;" 
d="M24 354q0 74 41 120t116 46q38 0 67.5 -12.5t50 -34.5t31.5 -52.5t11 -66.5v-198q0 -36 -11 -66.5t-31.5 -52.5t-50 -34.5t-67.5 -12.5q-75 0 -116 46t-41 120v198zM119 151q0 -36 17 -57.5t46 -21.5t46.5 21.5t17.5 57.5v208q0 36 -17.5 57.5t-46.5 21.5t-46 -21.5
t-17 -57.5v-208zM148 549l44 137h75l-55 -137h-64z" />
    <glyph glyph-name="ocircumflex" unicode="&#xf4;" 
d="M24 354q0 74 41 120t116 46q38 0 67.5 -12.5t50 -34.5t31.5 -52.5t11 -66.5v-198q0 -36 -11 -66.5t-31.5 -52.5t-50 -34.5t-67.5 -12.5q-75 0 -116 46t-41 120v198zM119 151q0 -36 17 -57.5t46 -21.5t46.5 21.5t17.5 57.5v208q0 36 -17.5 57.5t-46.5 21.5t-46 -21.5
t-17 -57.5v-208zM92 549l52 137h75l52 -137h-55l-33 82h-4l-32 -82h-55z" />
    <glyph glyph-name="otilde" unicode="&#xf5;" 
d="M24 354q0 74 41 120t116 46q38 0 67.5 -12.5t50 -34.5t31.5 -52.5t11 -66.5v-198q0 -36 -11 -66.5t-31.5 -52.5t-50 -34.5t-67.5 -12.5q-75 0 -116 46t-41 120v198zM119 151q0 -36 17 -57.5t46 -21.5t46.5 21.5t17.5 57.5v208q0 36 -17.5 57.5t-46.5 21.5t-46 -21.5
t-17 -57.5v-208zM276 655q0 -106 -49 -106q-29 0 -53 41l-4 6q-15 28 -33 28q-21 0 -21 -46v-26h-29v25q0 53 12.5 81t36.5 28q27 0 49 -38l4 -6q17 -30 36 -30q22 0 22 43v28h29v-28z" />
    <glyph glyph-name="odieresis" unicode="&#xf6;" 
d="M24 354q0 74 41 120t116 46q38 0 67.5 -12.5t50 -34.5t31.5 -52.5t11 -66.5v-198q0 -36 -11 -66.5t-31.5 -52.5t-50 -34.5t-67.5 -12.5q-75 0 -116 46t-41 120v198zM119 151q0 -36 17 -57.5t46 -21.5t46.5 21.5t17.5 57.5v208q0 36 -17.5 57.5t-46.5 21.5t-46 -21.5
t-17 -57.5v-208zM68 619q0 23 10.5 36.5t37.5 13.5t38 -14t11 -37t-10.5 -36t-37.5 -13t-38 13.5t-11 36.5zM197 619q0 23 10.5 36.5t37.5 13.5t38 -14t11 -37t-10.5 -36t-37.5 -13t-38 13.5t-11 36.5z" />
    <glyph glyph-name="oslash" unicode="&#xf8;" 
d="M24 354q0 74 41 120t116 46q35 0 63 -10.5t48 -30.5l23 41l25 -13l-28 -51q14 -20 21.5 -46t7.5 -56v-198q0 -36 -11 -66.5t-31.5 -52.5t-50 -34.5t-67.5 -12.5q-35 0 -62.5 10.5t-47.5 29.5l-23 -40l-25 14l28 49q-27 42 -27 103v198zM119 172l123 217q-14 49 -60 49
q-29 0 -46 -21.5t-17 -57.5v-187zM122 121q7 -23 22.5 -36t37.5 -13q29 0 46.5 21.5t17.5 57.5v188z" />
    <glyph glyph-name="oe" unicode="&#x153;" horiz-adv-x="586" 
d="M24 354q0 74 41 120t116 46q37 0 64 -15.5t44 -41.5h7q16 27 43 42t64 15q72 0 116 -45t44 -121v-122h-222v-81q0 -35 17 -57t46 -22t46.5 22t17.5 57v40h95v-35q0 -37 -11.5 -68t-32.5 -52.5t-50.5 -33.5t-65.5 -12q-37 0 -63.5 15.5t-43.5 42.5h-7q-16 -27 -43.5 -42.5
t-64.5 -15.5q-75 0 -116 46.5t-41 119.5v198zM119 151q0 -35 17 -57t46 -22t46.5 22t17.5 57v208q0 37 -17.5 58.5t-46.5 21.5t-46 -21.5t-17 -58.5v-208zM341 285h127v74q0 36 -17.5 58t-46.5 22t-46 -22t-17 -58v-74z" />
    <glyph glyph-name="Thorn" unicode="&#xde;" horiz-adv-x="393" 
d="M128 700v-121h63q87 0 132 -57.5t45 -176.5v-2q0 -119 -44 -170t-134 -51h-62v-122h-100v700h100zM128 209h62q78 0 78 100v76q0 55 -19 80.5t-59 25.5h-62v-282z" />
    <glyph glyph-name="scaron" unicode="&#x161;" 
d="M242 325v35q0 37 -16 57.5t-45 20.5q-28 0 -44.5 -19t-16.5 -51v-1q0 -29 14 -44t49 -26l58 -23q51 -17 74.5 -46t23.5 -80v-13q0 -29 -11 -55.5t-32 -46.5t-50.5 -31.5t-66.5 -11.5t-66 12t-49 33.5t-30.5 51t-10.5 64.5v34h95v-34q0 -35 17 -56t45 -21q29 0 47 19
t18 48v5q0 30 -14 45t-52 26l-60 22q-48 17 -70.5 46t-22.5 79v9q0 31 10.5 57.5t30 46.5t48.5 31.5t65 11.5q75 0 116 -45.5t41 -115.5v-34h-95zM271 687l-52 -137h-75l-53 137h55l33 -82h4l33 82h55z" />
    <glyph glyph-name="ugrave" unicode="&#xf9;" horiz-adv-x="363" 
d="M340 0h-95v71h-7q-18 -39 -45.5 -60t-61.5 -21q-45 0 -76.5 37.5t-31.5 108.5v374h95v-364q0 -33 15.5 -54t41.5 -21q23 0 41.5 17t28.5 46v376h95v-510zM152 549l-55 137h75l44 -137h-64z" />
    <glyph glyph-name="uacute" unicode="&#xfa;" horiz-adv-x="363" 
d="M340 0h-95v71h-7q-18 -39 -45.5 -60t-61.5 -21q-45 0 -76.5 37.5t-31.5 108.5v374h95v-364q0 -33 15.5 -54t41.5 -21q23 0 41.5 17t28.5 46v376h95v-510zM148 549l44 137h75l-55 -137h-64z" />
    <glyph glyph-name="ucircumflex" unicode="&#xfb;" horiz-adv-x="363" 
d="M340 0h-95v71h-7q-18 -39 -45.5 -60t-61.5 -21q-45 0 -76.5 37.5t-31.5 108.5v374h95v-364q0 -33 15.5 -54t41.5 -21q23 0 41.5 17t28.5 46v376h95v-510zM92 549l52 137h75l52 -137h-55l-33 82h-4l-32 -82h-55z" />
    <glyph glyph-name="udieresis" unicode="&#xfc;" horiz-adv-x="363" 
d="M340 0h-95v71h-7q-18 -39 -45.5 -60t-61.5 -21q-45 0 -76.5 37.5t-31.5 108.5v374h95v-364q0 -33 15.5 -54t41.5 -21q23 0 41.5 17t28.5 46v376h95v-510zM68 619q0 23 10.5 36.5t37.5 13.5t38 -14t11 -37t-10.5 -36t-37.5 -13t-38 13.5t-11 36.5zM197 619q0 23 10.5 36.5
t37.5 13.5t38 -14t11 -37t-10.5 -36t-37.5 -13t-38 13.5t-11 36.5z" />
    <glyph glyph-name="yacute" unicode="&#xfd;" horiz-adv-x="366" 
d="M342 -54q0 -72 -41.5 -114t-114.5 -42q-72 0 -114 41.5t-42 113.5v17h95v-12q0 -35 17 -56.5t44 -21.5q28 0 44.5 21.5t16.5 58.5v119h-7q-18 -39 -45.5 -60t-61.5 -21q-45 0 -76.5 37.5t-31.5 108.5v374h95v-364q0 -33 15.5 -54t41.5 -21q23 0 41.5 17t28.5 46v376h95
v-564zM148 549l44 137h75l-55 -137h-64z" />
    <glyph glyph-name="ydieresis" unicode="&#xff;" horiz-adv-x="366" 
d="M342 -54q0 -72 -41.5 -114t-114.5 -42q-72 0 -114 41.5t-42 113.5v17h95v-12q0 -35 17 -56.5t44 -21.5q28 0 44.5 21.5t16.5 58.5v119h-7q-18 -39 -45.5 -60t-61.5 -21q-45 0 -76.5 37.5t-31.5 108.5v374h95v-364q0 -33 15.5 -54t41.5 -21q23 0 41.5 17t28.5 46v376h95
v-564zM68 619q0 23 10.5 36.5t37.5 13.5t38 -14t11 -37t-10.5 -36t-37.5 -13t-38 13.5t-11 36.5zM197 619q0 23 10.5 36.5t37.5 13.5t38 -14t11 -37t-10.5 -36t-37.5 -13t-38 13.5t-11 36.5z" />
    <glyph glyph-name="zcaron" unicode="&#x17e;" horiz-adv-x="319" 
d="M18 0v81l167 341l-3 6h-156v82h265v-81l-166 -341l3 -6h173v-82h-283zM252 687l-52 -137h-75l-53 137h55l33 -82h4l33 82h55z" />
    <glyph glyph-name="thorn" unicode="&#xfe;" horiz-adv-x="366" 
d="M26 720h95v-276h7q16 37 43.5 56.5t61.5 19.5q48 0 78.5 -37.5t30.5 -103.5v-240q0 -67 -31 -108t-80 -41q-33 0 -60.5 20t-42.5 56h-7v-276h-95v930zM121 131q8 -26 26.5 -42t40.5 -16q26 0 42.5 21.5t16.5 54.5v212q0 33 -16.5 54.5t-42.5 21.5q-22 0 -40.5 -16
t-26.5 -42v-248z" />
    <glyph glyph-name="Amacron" unicode="&#x100;" horiz-adv-x="385" 
d="M272 700l107 -700h-100l-32 203h-109l-31 -203h-100l108 700h157zM234 290l-38 247h-7l-38 -247h83zM296 771h-205v74h205v-74z" />
    <glyph glyph-name="amacron" unicode="&#x101;" horiz-adv-x="363" 
d="M246 359q0 36 -17 58t-44 22q-28 0 -44.5 -22t-16.5 -58v-54h-95v49q0 76 41.5 121t113.5 45t114.5 -45t42.5 -121v-353h-95v60h-3q-41 -71 -111 -71q-49 0 -78.5 33.5t-29.5 87.5v46q0 57 38 89t108 32h76v81zM246 228h-39q-88 0 -88 -65v-33q0 -30 15 -47t42 -17
q24 0 42.5 14t27.5 40v108zM287 580h-205v74h205v-74z" />
    <glyph glyph-name="Abreve" unicode="&#x102;" horiz-adv-x="385" 
d="M272 700l107 -700h-100l-32 203h-109l-31 -203h-100l108 700h157zM234 290l-38 247h-7l-38 -247h83zM140 877q0 -32 11 -55t42 -23q32 0 42.5 23.5t10.5 54.5h59q0 -68 -26.5 -102.5t-85.5 -34.5t-85.5 34.5t-26.5 102.5h59z" />
    <glyph glyph-name="abreve" unicode="&#x103;" horiz-adv-x="363" 
d="M246 359q0 36 -17 58t-44 22q-28 0 -44.5 -22t-16.5 -58v-54h-95v49q0 76 41.5 121t113.5 45t114.5 -45t42.5 -121v-353h-95v60h-3q-41 -71 -111 -71q-49 0 -78.5 33.5t-29.5 87.5v46q0 57 38 89t108 32h76v81zM246 228h-39q-88 0 -88 -65v-33q0 -30 15 -47t42 -17
q24 0 42.5 14t27.5 40v108zM131 686q0 -32 11 -55t42 -23q32 0 42.5 23.5t10.5 54.5h59q0 -68 -26.5 -102.5t-85.5 -34.5t-85.5 34.5t-26.5 102.5h59z" />
    <glyph glyph-name="Aogonek" unicode="&#x104;" horiz-adv-x="385" 
d="M272 700l107 -700h-100l-32 203h-109l-31 -203h-100l108 700h157zM234 290l-38 247h-7l-38 -247h83zM371 8v-8q-37 -2 -60.5 -24.5t-23.5 -50.5q0 -22 13.5 -35.5t38.5 -13.5q18 0 39 7v-52q-33 -10 -62 -10q-45 0 -70 22.5t-25 56.5q0 41 39 73.5t111 34.5z" />
    <glyph glyph-name="aogonek" unicode="&#x105;" horiz-adv-x="363" 
d="M246 359q0 36 -17 58t-44 22q-28 0 -44.5 -22t-16.5 -58v-54h-95v49q0 76 41.5 121t113.5 45t114.5 -45t42.5 -121v-353h-95v60h-3q-41 -71 -111 -71q-49 0 -78.5 33.5t-29.5 87.5v46q0 57 38 89t108 32h76v81zM246 228h-39q-88 0 -88 -65v-33q0 -30 15 -47t42 -17
q24 0 42.5 14t27.5 40v108zM332 8v-8q-37 -2 -60.5 -24.5t-23.5 -50.5q0 -22 13.5 -35.5t38.5 -13.5q18 0 39 7v-52q-33 -10 -62 -10q-45 0 -70 22.5t-25 56.5q0 41 39 73.5t111 34.5z" />
    <glyph glyph-name="Cacute" unicode="&#x106;" horiz-adv-x="403" 
d="M126 163q0 -24 6.5 -40.5t17 -26.5t24.5 -14.5t28 -4.5q15 0 28.5 4.5t24 14.5t17 26.5t6.5 40.5v142h100v-135q0 -46 -13.5 -80t-37 -56.5t-56 -33t-70.5 -10.5t-70 10.5t-55.5 32.5t-36.5 56t-13 81v360q0 47 13 81t36.5 56t55.5 32.5t70 10.5t70.5 -10.5t56 -33
t37 -56t13.5 -80.5v-135h-100v142q0 24 -6.5 40.5t-17 26.5t-24 14.5t-28.5 4.5q-14 0 -28 -4.5t-24.5 -14.5t-17 -26.5t-6.5 -40.5v-374zM168 740l44 137h75l-55 -137h-64z" />
    <glyph glyph-name="cacute" unicode="&#x107;" 
d="M118 151q0 -36 17.5 -57.5t46.5 -21.5t46 21.5t17 57.5v70h95v-65q0 -76 -43.5 -121t-115.5 -45q-73 0 -115.5 45t-42.5 121v198q0 76 42.5 121t114.5 45q73 0 116.5 -45.5t43.5 -120.5v-65h-95v70q0 36 -17.5 57.5t-45.5 21.5q-29 0 -46.5 -21.5t-17.5 -57.5v-208z
M148 549l44 137h75l-55 -137h-64z" />
    <glyph glyph-name="Ccircumflex" unicode="&#x108;" horiz-adv-x="403" 
d="M126 163q0 -24 6.5 -40.5t17 -26.5t24.5 -14.5t28 -4.5q15 0 28.5 4.5t24 14.5t17 26.5t6.5 40.5v142h100v-135q0 -46 -13.5 -80t-37 -56.5t-56 -33t-70.5 -10.5t-70 10.5t-55.5 32.5t-36.5 56t-13 81v360q0 47 13 81t36.5 56t55.5 32.5t70 10.5t70.5 -10.5t56 -33
t37 -56t13.5 -80.5v-135h-100v142q0 24 -6.5 40.5t-17 26.5t-24 14.5t-28.5 4.5q-14 0 -28 -4.5t-24.5 -14.5t-17 -26.5t-6.5 -40.5v-374zM112 740l52 137h75l52 -137h-55l-33 82h-4l-32 -82h-55z" />
    <glyph glyph-name="ccircumflex" unicode="&#x109;" 
d="M118 151q0 -36 17.5 -57.5t46.5 -21.5t46 21.5t17 57.5v70h95v-65q0 -76 -43.5 -121t-115.5 -45q-73 0 -115.5 45t-42.5 121v198q0 76 42.5 121t114.5 45q73 0 116.5 -45.5t43.5 -120.5v-65h-95v70q0 36 -17.5 57.5t-45.5 21.5q-29 0 -46.5 -21.5t-17.5 -57.5v-208z
M92 549l52 137h75l52 -137h-55l-33 82h-4l-32 -82h-55z" />
    <glyph glyph-name="Cdotaccent" unicode="&#x10a;" horiz-adv-x="403" 
d="M126 163q0 -24 6.5 -40.5t17 -26.5t24.5 -14.5t28 -4.5q15 0 28.5 4.5t24 14.5t17 26.5t6.5 40.5v142h100v-135q0 -46 -13.5 -80t-37 -56.5t-56 -33t-70.5 -10.5t-70 10.5t-55.5 32.5t-36.5 56t-13 81v360q0 47 13 81t36.5 56t55.5 32.5t70 10.5t70.5 -10.5t56 -33
t37 -56t13.5 -80.5v-135h-100v142q0 24 -6.5 40.5t-17 26.5t-24 14.5t-28.5 4.5q-14 0 -28 -4.5t-24.5 -14.5t-17 -26.5t-6.5 -40.5v-374zM153 810q0 23 10.5 36.5t37.5 13.5t38 -13.5t11 -36.5t-10.5 -36.5t-37.5 -13.5t-38 13.5t-11 36.5z" />
    <glyph glyph-name="cdotaccent" unicode="&#x10b;" 
d="M118 151q0 -36 17.5 -57.5t46.5 -21.5t46 21.5t17 57.5v70h95v-65q0 -76 -43.5 -121t-115.5 -45q-73 0 -115.5 45t-42.5 121v198q0 76 42.5 121t114.5 45q73 0 116.5 -45.5t43.5 -120.5v-65h-95v70q0 36 -17.5 57.5t-45.5 21.5q-29 0 -46.5 -21.5t-17.5 -57.5v-208z
M133 619q0 23 10.5 36.5t37.5 13.5t38 -13.5t11 -36.5t-10.5 -36.5t-37.5 -13.5t-38 13.5t-11 36.5z" />
    <glyph glyph-name="Ccaron" unicode="&#x10c;" horiz-adv-x="403" 
d="M126 163q0 -24 6.5 -40.5t17 -26.5t24.5 -14.5t28 -4.5q15 0 28.5 4.5t24 14.5t17 26.5t6.5 40.5v142h100v-135q0 -46 -13.5 -80t-37 -56.5t-56 -33t-70.5 -10.5t-70 10.5t-55.5 32.5t-36.5 56t-13 81v360q0 47 13 81t36.5 56t55.5 32.5t70 10.5t70.5 -10.5t56 -33
t37 -56t13.5 -80.5v-135h-100v142q0 24 -6.5 40.5t-17 26.5t-24 14.5t-28.5 4.5q-14 0 -28 -4.5t-24.5 -14.5t-17 -26.5t-6.5 -40.5v-374zM292 878l-52 -137h-75l-53 137h55l33 -82h4l33 82h55z" />
    <glyph glyph-name="ccaron" unicode="&#x10d;" 
d="M118 151q0 -36 17.5 -57.5t46.5 -21.5t46 21.5t17 57.5v70h95v-65q0 -76 -43.5 -121t-115.5 -45q-73 0 -115.5 45t-42.5 121v198q0 76 42.5 121t114.5 45q73 0 116.5 -45.5t43.5 -120.5v-65h-95v70q0 36 -17.5 57.5t-45.5 21.5q-29 0 -46.5 -21.5t-17.5 -57.5v-208z
M272 687l-52 -137h-75l-53 137h55l33 -82h4l33 82h55z" />
    <glyph glyph-name="Dcaron" unicode="&#x10e;" horiz-adv-x="398" 
d="M196 700q38 0 70.5 -10t56.5 -31t37.5 -53.5t13.5 -78.5v-354q0 -46 -13.5 -79t-37.5 -54t-56.5 -30.5t-70.5 -9.5h-167v700h167zM129 87h66q16 0 30 4t24.5 14t17 26.5t6.5 40.5v356q0 24 -6.5 40.5t-17 26.5t-24.5 14t-30 4h-66v-526zM281 878l-52 -137h-75l-53 137h55
l33 -82h4l33 82h55z" />
    <glyph glyph-name="dcaron" unicode="&#x10f;" horiz-adv-x="363" 
d="M245 0v64h-7q-16 -35 -43 -54.5t-59 -19.5q-23 0 -43.5 10.5t-36 31t-24.5 49.5t-9 65v235q0 66 32.5 102.5t79.5 36.5q33 0 61 -18.5t42 -53.5l7 1v271h95v-720h-95zM245 384q-8 24 -25.5 38.5t-40.5 14.5q-27 0 -44 -21t-17 -55v-211q0 -33 17 -54.5t43 -21.5
q23 0 41 15t26 40v255zM396 720h71l-58 -242h-43z" />
    <glyph glyph-name="Emacron" unicode="&#x112;" horiz-adv-x="299" 
d="M128 613v-205h145v-87h-145v-234h155v-87h-255v700h250v-87h-150zM259 771h-205v74h205v-74z" />
    <glyph glyph-name="emacron" unicode="&#x113;" 
d="M118 151q0 -35 17.5 -57t46.5 -22t46 22t17 57v40h95v-35q0 -75 -43.5 -120.5t-115.5 -45.5q-73 0 -115.5 45t-42.5 121v198q0 76 42.5 121t114.5 45q73 0 116.5 -45.5t43.5 -120.5v-123h-222v-80zM118 285h127v74q0 36 -17.5 57.5t-45.5 21.5q-29 0 -46.5 -21.5
t-17.5 -57.5v-74zM284 580h-205v74h205v-74z" />
    <glyph glyph-name="Ebreve" unicode="&#x114;" horiz-adv-x="299" 
d="M128 613v-205h145v-87h-145v-234h155v-87h-255v700h250v-87h-150zM103 877q0 -32 11 -55t42 -23q32 0 42.5 23.5t10.5 54.5h59q0 -68 -26.5 -102.5t-85.5 -34.5t-85.5 34.5t-26.5 102.5h59z" />
    <glyph glyph-name="ebreve" unicode="&#x115;" 
d="M118 151q0 -35 17.5 -57t46.5 -22t46 22t17 57v40h95v-35q0 -75 -43.5 -120.5t-115.5 -45.5q-73 0 -115.5 45t-42.5 121v198q0 76 42.5 121t114.5 45q73 0 116.5 -45.5t43.5 -120.5v-123h-222v-80zM118 285h127v74q0 36 -17.5 57.5t-45.5 21.5q-29 0 -46.5 -21.5
t-17.5 -57.5v-74zM129 686q0 -32 11 -55t42 -23q32 0 42.5 23.5t10.5 54.5h59q0 -68 -26.5 -102.5t-85.5 -34.5t-85.5 34.5t-26.5 102.5h59z" />
    <glyph glyph-name="Edotaccent" unicode="&#x116;" horiz-adv-x="299" 
d="M128 613v-205h145v-87h-145v-234h155v-87h-255v700h250v-87h-150zM107 810q0 23 10.5 36.5t37.5 13.5t38 -13.5t11 -36.5t-10.5 -36.5t-37.5 -13.5t-38 13.5t-11 36.5z" />
    <glyph glyph-name="edotaccent" unicode="&#x117;" 
d="M118 151q0 -35 17.5 -57t46.5 -22t46 22t17 57v40h95v-35q0 -75 -43.5 -120.5t-115.5 -45.5q-73 0 -115.5 45t-42.5 121v198q0 76 42.5 121t114.5 45q73 0 116.5 -45.5t43.5 -120.5v-123h-222v-80zM118 285h127v74q0 36 -17.5 57.5t-45.5 21.5q-29 0 -46.5 -21.5
t-17.5 -57.5v-74zM133 619q0 23 10.5 36.5t37.5 13.5t38 -13.5t11 -36.5t-10.5 -36.5t-37.5 -13.5t-38 13.5t-11 36.5z" />
    <glyph glyph-name="Eogonek" unicode="&#x118;" horiz-adv-x="299" 
d="M128 613v-205h145v-87h-145v-234h155v-87h-255v700h250v-87h-150zM276 8v-8q-37 -2 -60.5 -24.5t-23.5 -50.5q0 -22 13.5 -35.5t38.5 -13.5q18 0 39 7v-52q-33 -10 -62 -10q-45 0 -70 22.5t-25 56.5q0 41 39 73.5t111 34.5z" />
    <glyph glyph-name="eogonek" unicode="&#x119;" 
d="M118 151q0 -35 17.5 -57t46.5 -22t46 22t17 57v40h95v-35q0 -75 -43.5 -120.5t-115.5 -45.5q-73 0 -115.5 45t-42.5 121v198q0 76 42.5 121t114.5 45q73 0 116.5 -45.5t43.5 -120.5v-123h-222v-80zM118 285h127v74q0 36 -17.5 57.5t-45.5 21.5q-29 0 -46.5 -21.5
t-17.5 -57.5v-74zM229 5l2 -8q-31 -5 -49 -26t-18 -46q0 -22 13.5 -35.5t38.5 -13.5q18 0 39 7v-52q-33 -10 -62 -10q-45 0 -70 22.5t-25 55.5q0 38 33.5 69t97.5 37z" />
    <glyph glyph-name="Ecaron" unicode="&#x11a;" horiz-adv-x="299" 
d="M128 613v-205h145v-87h-145v-234h155v-87h-255v700h250v-87h-150zM246 878l-52 -137h-75l-53 137h55l33 -82h4l33 82h55z" />
    <glyph glyph-name="ecaron" unicode="&#x11b;" 
d="M118 151q0 -35 17.5 -57t46.5 -22t46 22t17 57v40h95v-35q0 -75 -43.5 -120.5t-115.5 -45.5q-73 0 -115.5 45t-42.5 121v198q0 76 42.5 121t114.5 45q73 0 116.5 -45.5t43.5 -120.5v-123h-222v-80zM118 285h127v74q0 36 -17.5 57.5t-45.5 21.5q-29 0 -46.5 -21.5
t-17.5 -57.5v-74zM271 687l-52 -137h-75l-53 137h55l33 -82h4l33 82h55z" />
    <glyph glyph-name="Gcircumflex" unicode="&#x11c;" horiz-adv-x="403" 
d="M126 163q0 -43 21 -64.5t47 -21.5q15 0 30 7t27 21.5t19.5 36.5t7.5 51v111h-79v67h178v-371h-71v83h-7q-15 -47 -51 -70t-77 -23q-27 0 -53 10.5t-46.5 33t-33 56.5t-12.5 80v360q0 47 13 81t36.5 56t55.5 32.5t70 10.5t70 -10.5t55.5 -33t37 -56t13.5 -80.5v-112h-99
v118q0 24 -6.5 40.5t-17 26.5t-24 14.5t-28.5 4.5q-14 0 -28 -4.5t-24.5 -14.5t-17 -26.5t-6.5 -40.5v-373zM112 740l52 137h75l52 -137h-55l-33 82h-4l-32 -82h-55z" />
    <glyph glyph-name="gcircumflex" unicode="&#x11d;" horiz-adv-x="363" 
d="M341 -54q0 -72 -42 -114t-114 -42t-114 41.5t-42 113.5v17h95v-12q0 -35 16.5 -56.5t43.5 -21.5q28 0 45 21.5t17 58.5v119h-7q-18 -38 -46.5 -59.5t-60.5 -21.5q-48 0 -78 41.5t-30 107.5v236q0 65 29.5 105t77.5 40q32 0 61 -21t47 -60h7v71h95v-564zM246 373
q-10 28 -29.5 45.5t-41.5 17.5q-24 0 -40 -21.5t-16 -54.5v-209q0 -33 16 -55.5t40 -22.5q22 0 41.5 18t29.5 46v236zM83 549l52 137h75l52 -137h-55l-33 82h-4l-32 -82h-55z" />
    <glyph glyph-name="Gbreve" unicode="&#x11e;" horiz-adv-x="403" 
d="M126 163q0 -43 21 -64.5t47 -21.5q15 0 30 7t27 21.5t19.5 36.5t7.5 51v111h-79v67h178v-371h-71v83h-7q-15 -47 -51 -70t-77 -23q-27 0 -53 10.5t-46.5 33t-33 56.5t-12.5 80v360q0 47 13 81t36.5 56t55.5 32.5t70 10.5t70 -10.5t55.5 -33t37 -56t13.5 -80.5v-112h-99
v118q0 24 -6.5 40.5t-17 26.5t-24 14.5t-28.5 4.5q-14 0 -28 -4.5t-24.5 -14.5t-17 -26.5t-6.5 -40.5v-373zM149 877q0 -32 11 -55t42 -23q32 0 42.5 23.5t10.5 54.5h59q0 -68 -26.5 -102.5t-85.5 -34.5t-85.5 34.5t-26.5 102.5h59z" />
    <glyph glyph-name="gbreve" unicode="&#x11f;" horiz-adv-x="363" 
d="M341 -54q0 -72 -42 -114t-114 -42t-114 41.5t-42 113.5v17h95v-12q0 -35 16.5 -56.5t43.5 -21.5q28 0 45 21.5t17 58.5v119h-7q-18 -38 -46.5 -59.5t-60.5 -21.5q-48 0 -78 41.5t-30 107.5v236q0 65 29.5 105t77.5 40q32 0 61 -21t47 -60h7v71h95v-564zM246 373
q-10 28 -29.5 45.5t-41.5 17.5q-24 0 -40 -21.5t-16 -54.5v-209q0 -33 16 -55.5t40 -22.5q22 0 41.5 18t29.5 46v236zM120 686q0 -32 11 -55t42 -23q32 0 42.5 23.5t10.5 54.5h59q0 -68 -26.5 -102.5t-85.5 -34.5t-85.5 34.5t-26.5 102.5h59z" />
    <glyph glyph-name="Gdotaccent" unicode="&#x120;" horiz-adv-x="403" 
d="M126 163q0 -43 21 -64.5t47 -21.5q15 0 30 7t27 21.5t19.5 36.5t7.5 51v111h-79v67h178v-371h-71v83h-7q-15 -47 -51 -70t-77 -23q-27 0 -53 10.5t-46.5 33t-33 56.5t-12.5 80v360q0 47 13 81t36.5 56t55.5 32.5t70 10.5t70 -10.5t55.5 -33t37 -56t13.5 -80.5v-112h-99
v118q0 24 -6.5 40.5t-17 26.5t-24 14.5t-28.5 4.5q-14 0 -28 -4.5t-24.5 -14.5t-17 -26.5t-6.5 -40.5v-373zM153 810q0 23 10.5 36.5t37.5 13.5t38 -13.5t11 -36.5t-10.5 -36.5t-37.5 -13.5t-38 13.5t-11 36.5z" />
    <glyph glyph-name="gdotaccent" unicode="&#x121;" horiz-adv-x="363" 
d="M341 -54q0 -72 -42 -114t-114 -42t-114 41.5t-42 113.5v17h95v-12q0 -35 16.5 -56.5t43.5 -21.5q28 0 45 21.5t17 58.5v119h-7q-18 -38 -46.5 -59.5t-60.5 -21.5q-48 0 -78 41.5t-30 107.5v236q0 65 29.5 105t77.5 40q32 0 61 -21t47 -60h7v71h95v-564zM246 373
q-10 28 -29.5 45.5t-41.5 17.5q-24 0 -40 -21.5t-16 -54.5v-209q0 -33 16 -55.5t40 -22.5q22 0 41.5 18t29.5 46v236zM124 619q0 23 10.5 36.5t37.5 13.5t38 -13.5t11 -36.5t-10.5 -36.5t-37.5 -13.5t-38 13.5t-11 36.5z" />
    <glyph glyph-name="uni0122" unicode="&#x122;" horiz-adv-x="403" 
d="M126 163q0 -43 21 -64.5t47 -21.5q15 0 30 7t27 21.5t19.5 36.5t7.5 51v111h-79v67h178v-371h-71v83h-7q-15 -47 -51 -70t-77 -23q-27 0 -53 10.5t-46.5 33t-33 56.5t-12.5 80v360q0 47 13 81t36.5 56t55.5 32.5t70 10.5t70 -10.5t55.5 -33t37 -56t13.5 -80.5v-112h-99
v118q0 24 -6.5 40.5t-17 26.5t-24 14.5t-28.5 4.5q-14 0 -28 -4.5t-24.5 -14.5t-17 -26.5t-6.5 -40.5v-373zM166 -40h81l-43 -137h-53z" />
    <glyph glyph-name="uni0123" unicode="&#x123;" horiz-adv-x="363" 
d="M341 -54q0 -72 -42 -114t-114 -42t-114 41.5t-42 113.5v17h95v-12q0 -35 16.5 -56.5t43.5 -21.5q28 0 45 21.5t17 58.5v119h-7q-18 -38 -46.5 -59.5t-60.5 -21.5q-48 0 -78 41.5t-30 107.5v236q0 65 29.5 105t77.5 40q32 0 61 -21t47 -60h7v71h95v-564zM246 373
q-10 28 -29.5 45.5t-41.5 17.5q-24 0 -40 -21.5t-16 -54.5v-209q0 -33 16 -55.5t40 -22.5q22 0 41.5 18t29.5 46v236zM222 550h-81l44 136h53z" />
    <glyph glyph-name="Hcircumflex" unicode="&#x124;" horiz-adv-x="390" 
d="M362 701v-700h-100v315h-134v-315h-100v700h100v-298h134v298h100zM105 740l52 137h75l52 -137h-55l-33 82h-4l-32 -82h-55z" />
    <glyph glyph-name="hcircumflex" unicode="&#x125;" horiz-adv-x="366" 
d="M27 720h95v-281h6q17 39 44.5 60t61.5 21q46 0 77.5 -37.5t31.5 -108.5v-374h-95v361q0 33 -16 54t-41 21q-23 0 -41.5 -16.5t-27.5 -45.5v-374h-95v720zM-18 750l52 137h75l52 -137h-55l-33 82h-4l-32 -82h-55z" />
    <glyph glyph-name="Hbar" unicode="&#x126;" horiz-adv-x="390" 
d="M362 701v-131h29v-59h-29v-510h-100v315h-134v-315h-100v510h-29v59h29v131h100v-131h134v131h100zM262 403v108h-134v-108h134z" />
    <glyph glyph-name="hbar" unicode="&#x127;" horiz-adv-x="366" 
d="M27 720h95v-281h6q17 39 44.5 60t61.5 21q46 0 77.5 -37.5t31.5 -108.5v-374h-95v361q0 33 -16 54t-41 21q-23 0 -41.5 -16.5t-27.5 -45.5v-374h-95v720zM210 584h-225v67h225v-67z" />
    <glyph glyph-name="Itilde" unicode="&#x128;" horiz-adv-x="156" 
d="M128 700v-700h-100v700h100zM173 846q0 -106 -49 -106q-29 0 -53 41l-4 6q-15 28 -33 28q-21 0 -21 -46v-26h-29v25q0 53 12.5 81t36.5 28q27 0 49 -38l4 -6q17 -30 36 -30q22 0 22 43v28h29v-28z" />
    <glyph glyph-name="itilde" unicode="&#x129;" horiz-adv-x="158" 
d="M128 510v-510h-95v510h95zM174 656q0 -106 -49 -106q-29 0 -53 41l-4 6q-15 28 -33 28q-21 0 -21 -46v-26h-29v25q0 53 12.5 81t36.5 28q27 0 49 -38l4 -6q17 -30 36 -30q22 0 22 43v28h29v-28z" />
    <glyph glyph-name="Imacron" unicode="&#x12a;" horiz-adv-x="156" 
d="M128 700v-700h-100v700h100zM181 771h-205v74h205v-74z" />
    <glyph glyph-name="imacron" unicode="&#x12b;" horiz-adv-x="158" 
d="M128 510v-510h-95v510h95zM182 581h-205v74h205v-74z" />
    <glyph glyph-name="Ibreve" unicode="&#x12c;" horiz-adv-x="156" 
d="M128 700v-700h-100v700h100zM25 877q0 -32 11 -55t42 -23q32 0 42.5 23.5t10.5 54.5h59q0 -68 -26.5 -102.5t-85.5 -34.5t-85.5 34.5t-26.5 102.5h59z" />
    <glyph glyph-name="ibreve" unicode="&#x12d;" horiz-adv-x="158" 
d="M128 510v-510h-95v510h95zM26 687q0 -32 11 -55t42 -23q32 0 42.5 23.5t10.5 54.5h59q0 -68 -26.5 -102.5t-85.5 -34.5t-85.5 34.5t-26.5 102.5h59z" />
    <glyph glyph-name="Iogonek" unicode="&#x12e;" horiz-adv-x="156" 
d="M128 700v-700h-100v700h100zM120 8v-8q-37 -2 -60.5 -24.5t-23.5 -50.5q0 -22 13.5 -35.5t38.5 -13.5q18 0 39 7v-52q-33 -10 -62 -10q-45 0 -70 22.5t-25 56.5q0 41 39 73.5t111 34.5z" />
    <glyph glyph-name="iogonek" unicode="&#x12f;" horiz-adv-x="159" 
d="M22 632q0 53 58 53q28 0 43.5 -13.5t15.5 -39.5t-15.5 -40t-43.5 -14q-58 0 -58 54zM129 510v-510h-96v510h96zM151 -2v-8q-37 -2 -60.5 -24.5t-23.5 -50.5q0 -22 13.5 -35.5t38.5 -13.5q18 0 39 7v-52q-33 -10 -62 -10q-45 0 -70 22.5t-25 56.5q0 41 39 73.5t111 34.5z
" />
    <glyph glyph-name="Idotaccent" unicode="&#x130;" horiz-adv-x="156" 
d="M128 700v-700h-100v700h100zM29 810q0 23 10.5 36.5t37.5 13.5t38 -13.5t11 -36.5t-10.5 -36.5t-37.5 -13.5t-38 13.5t-11 36.5z" />
    <glyph glyph-name="IJ" unicode="&#x132;" horiz-adv-x="544" 
d="M128 700v-700h-100v700h100zM516 700v-530q0 -93 -47 -136.5t-122 -43.5t-121.5 43t-46.5 137v130h100v-137q0 -48 21 -67t49 -19q27 0 47 19t20 67v537h100z" />
    <glyph glyph-name="ij" unicode="&#x133;" horiz-adv-x="322" 
d="M22 632q0 53 58 53q28 0 43.5 -13.5t15.5 -39.5t-15.5 -40t-43.5 -14q-58 0 -58 54zM129 510v-510h-96v510h96zM184 633q0 27 16 40t42 13q27 0 43 -13.5t16 -39.5q0 -27 -15.5 -40.5t-42.5 -13.5t-43 13.5t-16 40.5zM290 -60q0 -75 -31.5 -112t-85.5 -37q-26 0 -59 9
l2 81q9 -2 16 -3.5t14 -1.5q49 0 49 63v572h95v-571z" />
    <glyph glyph-name="Jcircumflex" unicode="&#x134;" horiz-adv-x="373" 
d="M345 700v-530q0 -93 -47 -136.5t-122 -43.5t-121.5 43t-46.5 137v130h100v-137q0 -48 21 -67t49 -19q27 0 47 19t20 67v537h100zM205 740l52 137h75l52 -137h-55l-33 82h-4l-32 -82h-55z" />
    <glyph glyph-name="jcircumflex" unicode="&#x135;" horiz-adv-x="158" 
d="M126 -60q0 -75 -31 -112.5t-86 -37.5q-26 0 -59 9l2 82q9 -2 16 -3.5t14 -1.5q49 0 49 62v572h95v-570zM-11 550l52 137h75l52 -137h-55l-33 82h-4l-32 -82h-55z" />
    <glyph glyph-name="uni0136" unicode="&#x136;" horiz-adv-x="385" 
d="M128 394h16l111 307h107l-136 -351l152 -350h-107l-127 306h-16v-306h-100v701h100v-307zM161 -40h81l-43 -137h-53z" />
    <glyph glyph-name="uni0137" unicode="&#x137;" horiz-adv-x="334" 
d="M121 314h6l107 197h96l-127 -242l132 -268h-95l-113 221h-6v-221h-95v720h95v-407zM137 -40h81l-43 -137h-53z" />
    <glyph glyph-name="kgreenlandic" unicode="&#x138;" horiz-adv-x="324" 
d="M121 313h6l97 197h96l-117 -242l122 -268h-95l-103 222h-6v-222h-95v510h95v-197z" />
    <glyph glyph-name="Lacute" unicode="&#x139;" horiz-adv-x="285" 
d="M128 700v-613h150v-87h-250v700h100zM44 740l44 137h75l-55 -137h-64z" />
    <glyph glyph-name="lacute" unicode="&#x13a;" horiz-adv-x="151" 
d="M28 720h95v-720h-95v720zM42 760l44 137h75l-55 -137h-64z" />
    <glyph glyph-name="uni013B" unicode="&#x13b;" horiz-adv-x="285" 
d="M128 700v-613h150v-87h-250v700h100zM118 -40h81l-43 -137h-53z" />
    <glyph glyph-name="uni013C" unicode="&#x13c;" horiz-adv-x="151" 
d="M28 720h95v-720h-95v720zM35 -40h81l-43 -137h-53z" />
    <glyph glyph-name="Lcaron" unicode="&#x13d;" horiz-adv-x="290" 
d="M128 700v-613h150v-87h-250v700h100zM236 700h71l-58 -242h-43z" />
    <glyph glyph-name="lcaron" unicode="&#x13e;" horiz-adv-x="151" 
d="M28 720h95v-720h-95v720zM179 720h71l-58 -242h-43z" />
    <glyph glyph-name="Ldot" unicode="&#x13f;" horiz-adv-x="285" 
d="M128 700v-613h150v-87h-250v700h100zM203 365q0 23 10.5 36.5t37.5 13.5t38 -13.5t11 -36.5t-11 -36t-38 -13t-37.5 13.5t-10.5 35.5z" />
    <glyph glyph-name="ldot" unicode="&#x140;" horiz-adv-x="151" 
d="M28 720h95v-720h-95v720zM155 343q0 23 10.5 36.5t37.5 13.5t38 -13.5t11 -36.5t-11 -36t-38 -13t-37.5 13.5t-10.5 35.5z" />
    <glyph glyph-name="Nacute" unicode="&#x143;" horiz-adv-x="406" 
d="M377 700v-700h-116l-148 534h-6l21 -534h-100v700h116l150 -536h6l-23 536h100zM169 740l44 137h75l-55 -137h-64z" />
    <glyph glyph-name="nacute" unicode="&#x144;" horiz-adv-x="366" 
d="M26 510h95v-71h7q17 39 44 60t61 21q46 0 77.5 -37.5t31.5 -108.5v-374h-95v362q0 33 -16 54t-41 21q-23 0 -41.5 -17t-27.5 -45v-375h-95v510zM152 549l44 137h75l-55 -137h-64z" />
    <glyph glyph-name="uni0145" unicode="&#x145;" horiz-adv-x="406" 
d="M377 700v-700h-116l-148 534h-6l21 -534h-100v700h116l150 -536h6l-23 536h100zM164 -40h81l-43 -137h-53z" />
    <glyph glyph-name="uni0146" unicode="&#x146;" horiz-adv-x="366" 
d="M26 510h95v-71h7q17 39 44 60t61 21q46 0 77.5 -37.5t31.5 -108.5v-374h-95v362q0 33 -16 54t-41 21q-23 0 -41.5 -17t-27.5 -45v-375h-95v510zM149 -40h81l-43 -137h-53z" />
    <glyph glyph-name="Ncaron" unicode="&#x147;" horiz-adv-x="406" 
d="M377 700v-700h-116l-148 534h-6l21 -534h-100v700h116l150 -536h6l-23 536h100zM292 878l-52 -137h-75l-53 137h55l33 -82h4l33 82h55z" />
    <glyph glyph-name="ncaron" unicode="&#x148;" horiz-adv-x="366" 
d="M26 510h95v-71h7q17 39 44 60t61 21q46 0 77.5 -37.5t31.5 -108.5v-374h-95v362q0 33 -16 54t-41 21q-23 0 -41.5 -17t-27.5 -45v-375h-95v510zM275 687l-52 -137h-75l-53 137h55l33 -82h4l33 82h55z" />
    <glyph glyph-name="napostrophe" unicode="&#x149;" horiz-adv-x="366" 
d="M26 510h95v-71h7q17 39 44 60t61 21q46 0 77.5 -37.5t31.5 -108.5v-374h-95v362q0 33 -16 54t-41 21q-23 0 -41.5 -17t-27.5 -45v-375h-95v510zM-38 700h81l-58 -242h-53z" />
    <glyph glyph-name="Eng" unicode="&#x14a;" horiz-adv-x="411" 
d="M381 700v-761q0 -75 -31.5 -112t-85.5 -37q-27 0 -59 9l2 81q18 -5 26 -5q41 0 41 63v62l-158 534h-6l21 -534h-100v700h116l150 -512h6l-22 512h100z" />
    <glyph glyph-name="eng" unicode="&#x14b;" horiz-adv-x="366" 
d="M342 -60q0 -75 -31 -112.5t-86 -37.5q-26 0 -59 9l3 82q18 -5 29 -5q49 0 49 62v424q0 33 -16 54t-41 21q-23 0 -41.5 -16.5t-27.5 -45.5v-375h-95v510h95v-71h7q17 39 44 60t61 21q46 0 77.5 -37.5t31.5 -108.5v-434z" />
    <glyph glyph-name="Omacron" unicode="&#x14c;" horiz-adv-x="403" 
d="M27 530q0 47 13 81t36.5 56t55.5 32.5t69 10.5q38 0 70.5 -10.5t56.5 -33t37.5 -56t13.5 -80.5v-360q0 -46 -13.5 -80t-37.5 -56.5t-56.5 -33t-70.5 -10.5q-37 0 -69 10.5t-55.5 32.5t-36.5 56t-13 81v360zM127 163q0 -24 6.5 -40.5t17 -26.5t24 -14.5t28.5 -4.5
q14 0 28 4.5t24.5 14.5t17 26.5t6.5 40.5v374q0 24 -6.5 40.5t-17 26.5t-24.5 14.5t-28 4.5q-15 0 -28.5 -4.5t-24 -14.5t-17 -26.5t-6.5 -40.5v-374zM304 771h-205v74h205v-74z" />
    <glyph glyph-name="omacron" unicode="&#x14d;" 
d="M24 354q0 74 41 120t116 46q38 0 67.5 -12.5t50 -34.5t31.5 -52.5t11 -66.5v-198q0 -36 -11 -66.5t-31.5 -52.5t-50 -34.5t-67.5 -12.5q-75 0 -116 46t-41 120v198zM119 151q0 -36 17 -57.5t46 -21.5t46.5 21.5t17.5 57.5v208q0 36 -17.5 57.5t-46.5 21.5t-46 -21.5
t-17 -57.5v-208zM285 580h-205v74h205v-74z" />
    <glyph glyph-name="Obreve" unicode="&#x14e;" horiz-adv-x="403" 
d="M27 530q0 47 13 81t36.5 56t55.5 32.5t69 10.5q38 0 70.5 -10.5t56.5 -33t37.5 -56t13.5 -80.5v-360q0 -46 -13.5 -80t-37.5 -56.5t-56.5 -33t-70.5 -10.5q-37 0 -69 10.5t-55.5 32.5t-36.5 56t-13 81v360zM127 163q0 -24 6.5 -40.5t17 -26.5t24 -14.5t28.5 -4.5
q14 0 28 4.5t24.5 14.5t17 26.5t6.5 40.5v374q0 24 -6.5 40.5t-17 26.5t-24.5 14.5t-28 4.5q-15 0 -28.5 -4.5t-24 -14.5t-17 -26.5t-6.5 -40.5v-374zM149 877q0 -32 11 -55t42 -23q32 0 42.5 23.5t10.5 54.5h59q0 -68 -26.5 -102.5t-85.5 -34.5t-85.5 34.5t-26.5 102.5h59z
" />
    <glyph glyph-name="obreve" unicode="&#x14f;" 
d="M24 354q0 74 41 120t116 46q38 0 67.5 -12.5t50 -34.5t31.5 -52.5t11 -66.5v-198q0 -36 -11 -66.5t-31.5 -52.5t-50 -34.5t-67.5 -12.5q-75 0 -116 46t-41 120v198zM119 151q0 -36 17 -57.5t46 -21.5t46.5 21.5t17.5 57.5v208q0 36 -17.5 57.5t-46.5 21.5t-46 -21.5
t-17 -57.5v-208zM129 686q0 -32 11 -55t42 -23q32 0 42.5 23.5t10.5 54.5h59q0 -68 -26.5 -102.5t-85.5 -34.5t-85.5 34.5t-26.5 102.5h59z" />
    <glyph glyph-name="Ohungarumlaut" unicode="&#x150;" horiz-adv-x="403" 
d="M27 530q0 47 13 81t36.5 56t55.5 32.5t69 10.5q38 0 70.5 -10.5t56.5 -33t37.5 -56t13.5 -80.5v-360q0 -46 -13.5 -80t-37.5 -56.5t-56.5 -33t-70.5 -10.5q-37 0 -69 10.5t-55.5 32.5t-36.5 56t-13 81v360zM127 163q0 -24 6.5 -40.5t17 -26.5t24 -14.5t28.5 -4.5
q14 0 28 4.5t24.5 14.5t17 26.5t6.5 40.5v374q0 24 -6.5 40.5t-17 26.5t-24.5 14.5t-28 4.5q-15 0 -28.5 -4.5t-24 -14.5t-17 -26.5t-6.5 -40.5v-374zM120 740l44 137h60l-55 -137h-49zM216 740l44 137h60l-55 -137h-49z" />
    <glyph glyph-name="ohungarumlaut" unicode="&#x151;" 
d="M24 354q0 74 41 120t116 46q38 0 67.5 -12.5t50 -34.5t31.5 -52.5t11 -66.5v-198q0 -36 -11 -66.5t-31.5 -52.5t-50 -34.5t-67.5 -12.5q-75 0 -116 46t-41 120v198zM119 151q0 -36 17 -57.5t46 -21.5t46.5 21.5t17.5 57.5v208q0 36 -17.5 57.5t-46.5 21.5t-46 -21.5
t-17 -57.5v-208zM101 549l44 137h60l-55 -137h-49zM197 549l44 137h60l-55 -137h-49z" />
    <glyph glyph-name="Racute" unicode="&#x154;" horiz-adv-x="398" 
d="M191 700q84 0 130.5 -48t46.5 -140v-4q0 -80 -31 -124t-73 -52v-7q21 -4 39.5 -17.5t33 -35t23 -51t8.5 -65.5v-13q0 -51 2 -83.5t8 -59.5h-100q-8 31 -9 66.5t-1 77.5v54q0 42 -20 64.5t-58 22.5h-62v-285h-100v700h163zM128 372h62q38 0 58 24t20 69v55q0 45 -20 69
t-58 24h-62v-241zM158 740l44 137h75l-55 -137h-64z" />
    <glyph glyph-name="racute" unicode="&#x155;" horiz-adv-x="265" 
d="M121 419h3q16 46 42.5 73.5t74.5 27.5h8.5t8.5 -1v-94q-6 2 -11.5 2h-11.5q-60 0 -87 -40t-27 -106v-281h-95v510h95v-91zM109 550l44 137h75l-55 -137h-64z" />
    <glyph glyph-name="uni0156" unicode="&#x156;" horiz-adv-x="398" 
d="M191 700q84 0 130.5 -48t46.5 -140v-4q0 -80 -31 -124t-73 -52v-7q21 -4 39.5 -17.5t33 -35t23 -51t8.5 -65.5v-13q0 -51 2 -83.5t8 -59.5h-100q-8 31 -9 66.5t-1 77.5v54q0 42 -20 64.5t-58 22.5h-62v-285h-100v700h163zM128 372h62q38 0 58 24t20 69v55q0 45 -20 69
t-58 24h-62v-241zM167 -40h81l-43 -137h-53z" />
    <glyph glyph-name="uni0157" unicode="&#x157;" horiz-adv-x="265" 
d="M121 419h3q16 46 42.5 73.5t74.5 27.5h8.5t8.5 -1v-94q-6 2 -11.5 2h-11.5q-60 0 -87 -40t-27 -106v-281h-95v510h95v-91zM37 -40h81l-43 -137h-53z" />
    <glyph glyph-name="Rcaron" unicode="&#x158;" horiz-adv-x="398" 
d="M191 700q84 0 130.5 -48t46.5 -140v-4q0 -80 -31 -124t-73 -52v-7q21 -4 39.5 -17.5t33 -35t23 -51t8.5 -65.5v-13q0 -51 2 -83.5t8 -59.5h-100q-8 31 -9 66.5t-1 77.5v54q0 42 -20 64.5t-58 22.5h-62v-285h-100v700h163zM128 372h62q38 0 58 24t20 69v55q0 45 -20 69
t-58 24h-62v-241zM281 878l-52 -137h-75l-53 137h55l33 -82h4l33 82h55z" />
    <glyph glyph-name="rcaron" unicode="&#x159;" horiz-adv-x="265" 
d="M121 419h3q16 46 42.5 73.5t74.5 27.5h8.5t8.5 -1v-94q-6 2 -11.5 2h-11.5q-60 0 -87 -40t-27 -106v-281h-95v510h95v-91zM232 688l-52 -137h-75l-53 137h55l33 -82h4l33 82h55z" />
    <glyph glyph-name="Sacute" unicode="&#x15a;" horiz-adv-x="403" 
d="M276 445v92q0 41 -19.5 63.5t-54.5 22.5t-54 -22.5t-19 -63.5v-39q0 -20 4 -35.5t15 -28t30 -24t49 -23.5l40 -15q61 -23 86 -64.5t25 -118.5v-19q0 -85 -46.5 -132.5t-130.5 -47.5t-129 47t-45 133v85h100v-92q0 -41 20 -63.5t55 -22.5q36 0 56 22.5t20 63.5v42
q0 20 -4.5 35.5t-15 28t-29 23.5t-47.5 23l-44 16q-59 23 -84 65.5t-25 118.5v15q0 87 45 133.5t127 46.5q83 0 129 -47.5t46 -132.5v-85h-100zM168 740l44 137h75l-55 -137h-64z" />
    <glyph glyph-name="sacute" unicode="&#x15b;" 
d="M242 325v35q0 37 -16 57.5t-45 20.5q-28 0 -44.5 -19t-16.5 -51v-1q0 -29 14 -44t49 -26l58 -23q51 -17 74.5 -46t23.5 -80v-13q0 -29 -11 -55.5t-32 -46.5t-50.5 -31.5t-66.5 -11.5t-66 12t-49 33.5t-30.5 51t-10.5 64.5v34h95v-34q0 -35 17 -56t45 -21q29 0 47 19
t18 48v5q0 30 -14 45t-52 26l-60 22q-48 17 -70.5 46t-22.5 79v9q0 31 10.5 57.5t30 46.5t48.5 31.5t65 11.5q75 0 116 -45.5t41 -115.5v-34h-95zM148 549l44 137h75l-55 -137h-64z" />
    <glyph glyph-name="Scircumflex" unicode="&#x15c;" horiz-adv-x="403" 
d="M276 445v92q0 41 -19.5 63.5t-54.5 22.5t-54 -22.5t-19 -63.5v-39q0 -20 4 -35.5t15 -28t30 -24t49 -23.5l40 -15q61 -23 86 -64.5t25 -118.5v-19q0 -85 -46.5 -132.5t-130.5 -47.5t-129 47t-45 133v85h100v-92q0 -41 20 -63.5t55 -22.5q36 0 56 22.5t20 63.5v42
q0 20 -4.5 35.5t-15 28t-29 23.5t-47.5 23l-44 16q-59 23 -84 65.5t-25 118.5v15q0 87 45 133.5t127 46.5q83 0 129 -47.5t46 -132.5v-85h-100zM112 740l52 137h75l52 -137h-55l-33 82h-4l-32 -82h-55z" />
    <glyph glyph-name="scircumflex" unicode="&#x15d;" 
d="M242 325v35q0 37 -16 57.5t-45 20.5q-28 0 -44.5 -19t-16.5 -51v-1q0 -29 14 -44t49 -26l58 -23q51 -17 74.5 -46t23.5 -80v-13q0 -29 -11 -55.5t-32 -46.5t-50.5 -31.5t-66.5 -11.5t-66 12t-49 33.5t-30.5 51t-10.5 64.5v34h95v-34q0 -35 17 -56t45 -21q29 0 47 19
t18 48v5q0 30 -14 45t-52 26l-60 22q-48 17 -70.5 46t-22.5 79v9q0 31 10.5 57.5t30 46.5t48.5 31.5t65 11.5q75 0 116 -45.5t41 -115.5v-34h-95zM92 549l52 137h75l52 -137h-55l-33 82h-4l-32 -82h-55z" />
    <glyph glyph-name="Scedilla" unicode="&#x15e;" horiz-adv-x="403" 
d="M276 445v92q0 41 -19.5 63.5t-54.5 22.5t-54 -22.5t-19 -63.5v-39q0 -20 4 -35.5t15 -28t30 -24t49 -23.5l40 -15q61 -23 86 -64.5t25 -118.5v-19q0 -85 -46.5 -132.5t-130.5 -47.5t-129 47t-45 133v85h100v-92q0 -41 20 -63.5t55 -22.5q36 0 56 22.5t20 63.5v42
q0 20 -4.5 35.5t-15 28t-29 23.5t-47.5 23l-44 16q-59 23 -84 65.5t-25 118.5v15q0 87 45 133.5t127 46.5q83 0 129 -47.5t46 -132.5v-85h-100zM206 -3h43l-5 -42q52 0 81 -20t29 -49q0 -31 -31.5 -54t-86.5 -23q-14 0 -31 1.5t-35 5.5v41q23 -5 42 -5q30 0 50.5 11t20.5 28
t-23.5 26.5t-65.5 9.5z" />
    <glyph glyph-name="scedilla" unicode="&#x15f;" 
d="M242 325v35q0 37 -16 57.5t-45 20.5q-28 0 -44.5 -19t-16.5 -51v-1q0 -29 14 -44t49 -26l58 -23q51 -17 74.5 -46t23.5 -80v-13q0 -29 -11 -55.5t-32 -46.5t-50.5 -31.5t-66.5 -11.5t-66 12t-49 33.5t-30.5 51t-10.5 64.5v34h95v-34q0 -35 17 -56t45 -21q29 0 47 19
t18 48v5q0 30 -14 45t-52 26l-60 22q-48 17 -70.5 46t-22.5 79v9q0 31 10.5 57.5t30 46.5t48.5 31.5t65 11.5q75 0 116 -45.5t41 -115.5v-34h-95zM160 -3h43l-5 -42q52 0 81 -20t29 -49q0 -31 -31.5 -54t-86.5 -23q-14 0 -31 1.5t-35 5.5v41q23 -5 42 -5q30 0 50.5 11
t20.5 28t-23.5 26.5t-65.5 9.5z" />
    <glyph glyph-name="uni0162" unicode="&#x162;" horiz-adv-x="344" 
d="M337 613h-115v-613h-100v613h-115v87h330v-87zM151 5h43l-5 -42q52 0 81 -20t29 -49q0 -31 -31.5 -54t-86.5 -23q-14 0 -31 1.5t-35 5.5v41q23 -5 42 -5q30 0 50.5 11t20.5 28t-23.5 26.5t-65.5 9.5z" />
    <glyph glyph-name="uni0163" unicode="&#x163;" horiz-adv-x="256" 
d="M5 510h50v109l95 7v-116h101v-82h-101v-286q0 -38 18 -53t42 -15q10 0 20 2t21 5l3 -82q-40 -9 -73 -9q-27 0 -50.5 7.5t-40 25t-26 45.5t-9.5 69v291h-50v82zM137 -3h43l-5 -42q52 0 81 -20t29 -49q0 -31 -31.5 -54t-86.5 -23q-14 0 -31 1.5t-35 5.5v41q23 -5 42 -5
q30 0 50.5 11t20.5 28t-23.5 26.5t-65.5 9.5z" />
    <glyph glyph-name="Tcaron" unicode="&#x164;" horiz-adv-x="344" 
d="M337 613h-115v-613h-100v613h-115v87h330v-87zM262 878l-52 -137h-75l-53 137h55l33 -82h4l33 82h55z" />
    <glyph glyph-name="tcaron" unicode="&#x165;" horiz-adv-x="256" 
d="M5 510h50v109l95 7v-116h101v-82h-101v-286q0 -38 18 -53t42 -15q10 0 20 2t21 5l3 -82q-40 -9 -73 -9q-27 0 -50.5 7.5t-40 25t-26 45.5t-9.5 69v291h-50v82zM227 710h66l-38 -162h-48z" />
    <glyph glyph-name="Tbar" unicode="&#x166;" horiz-adv-x="344" 
d="M337 613h-115v-613h-100v613h-115v87h330v-87zM285 297h-225v67h225v-67z" />
    <glyph glyph-name="tbar" unicode="&#x167;" horiz-adv-x="256" 
d="M5 510h50v109l95 7v-116h101v-82h-101v-286q0 -38 18 -53t42 -15q10 0 20 2t21 5l3 -82q-40 -9 -73 -9q-27 0 -50.5 7.5t-40 25t-26 45.5t-9.5 69v291h-50v82zM251 253h-246v57h246v-57z" />
    <glyph glyph-name="Utilde" unicode="&#x168;" horiz-adv-x="393" 
d="M127 700v-537q0 -48 22 -67t49 -19t49 19t22 67v537h100v-530q0 -46 -13 -80t-36 -56.5t-54.5 -33t-69.5 -10.5q-37 0 -68 10.5t-53.5 32.5t-35 56t-12.5 81v530h100zM294 846q0 -106 -49 -106q-29 0 -53 41l-4 6q-15 28 -33 28q-21 0 -21 -46v-26h-29v25q0 53 12.5 81
t36.5 28q27 0 49 -38l4 -6q17 -30 36 -30q22 0 22 43v28h29v-28z" />
    <glyph glyph-name="utilde" unicode="&#x169;" horiz-adv-x="363" 
d="M340 0h-95v71h-7q-18 -39 -45.5 -60t-61.5 -21q-45 0 -76.5 37.5t-31.5 108.5v374h95v-364q0 -33 15.5 -54t41.5 -21q23 0 41.5 17t28.5 46v376h95v-510zM276 655q0 -106 -49 -106q-29 0 -53 41l-4 6q-15 28 -33 28q-21 0 -21 -46v-26h-29v25q0 53 12.5 81t36.5 28
q27 0 49 -38l4 -6q17 -30 36 -30q22 0 22 43v28h29v-28z" />
    <glyph glyph-name="Umacron" unicode="&#x16a;" horiz-adv-x="393" 
d="M127 700v-537q0 -48 22 -67t49 -19t49 19t22 67v537h100v-530q0 -46 -13 -80t-36 -56.5t-54.5 -33t-69.5 -10.5q-37 0 -68 10.5t-53.5 32.5t-35 56t-12.5 81v530h100zM302 771h-205v74h205v-74z" />
    <glyph glyph-name="umacron" unicode="&#x16b;" horiz-adv-x="363" 
d="M340 0h-95v71h-7q-18 -39 -45.5 -60t-61.5 -21q-45 0 -76.5 37.5t-31.5 108.5v374h95v-364q0 -33 15.5 -54t41.5 -21q23 0 41.5 17t28.5 46v376h95v-510zM285 580h-205v74h205v-74z" />
    <glyph glyph-name="Ubreve" unicode="&#x16c;" horiz-adv-x="393" 
d="M127 700v-537q0 -48 22 -67t49 -19t49 19t22 67v537h100v-530q0 -46 -13 -80t-36 -56.5t-54.5 -33t-69.5 -10.5q-37 0 -68 10.5t-53.5 32.5t-35 56t-12.5 81v530h100zM146 877q0 -32 11 -55t42 -23q32 0 42.5 23.5t10.5 54.5h59q0 -68 -26.5 -102.5t-85.5 -34.5
t-85.5 34.5t-26.5 102.5h59z" />
    <glyph glyph-name="ubreve" unicode="&#x16d;" horiz-adv-x="363" 
d="M340 0h-95v71h-7q-18 -39 -45.5 -60t-61.5 -21q-45 0 -76.5 37.5t-31.5 108.5v374h95v-364q0 -33 15.5 -54t41.5 -21q23 0 41.5 17t28.5 46v376h95v-510zM129 686q0 -32 11 -55t42 -23q32 0 42.5 23.5t10.5 54.5h59q0 -68 -26.5 -102.5t-85.5 -34.5t-85.5 34.5
t-26.5 102.5h59z" />
    <glyph glyph-name="Uring" unicode="&#x16e;" horiz-adv-x="393" 
d="M127 700v-537q0 -48 22 -67t49 -19t49 19t22 67v537h100v-530q0 -46 -13 -80t-36 -56.5t-54.5 -33t-69.5 -10.5q-37 0 -68 10.5t-53.5 32.5t-35 56t-12.5 81v530h100zM120 809q0 35 21 51.5t57 16.5t57.5 -17t21.5 -51q0 -35 -21 -52t-57 -17q-37 0 -58 17t-21 52z
M156 809q0 -37 43 -37q20 0 31 9.5t11 27.5q0 17 -11.5 26.5t-31.5 9.5t-31 -9.5t-11 -26.5z" />
    <glyph glyph-name="uring" unicode="&#x16f;" horiz-adv-x="363" 
d="M340 0h-95v71h-7q-18 -39 -45.5 -60t-61.5 -21q-45 0 -76.5 37.5t-31.5 108.5v374h95v-364q0 -33 15.5 -54t41.5 -21q23 0 41.5 17t28.5 46v376h95v-510zM103 618q0 35 21 51.5t57 16.5t57.5 -17t21.5 -51q0 -35 -21 -52t-57 -17q-37 0 -58 17t-21 52zM139 618
q0 -37 43 -37q20 0 31 9.5t11 27.5q0 17 -11.5 26.5t-31.5 9.5t-31 -9.5t-11 -26.5z" />
    <glyph glyph-name="Uhungarumlaut" unicode="&#x170;" horiz-adv-x="393" 
d="M127 700v-537q0 -48 22 -67t49 -19t49 19t22 67v537h100v-530q0 -46 -13 -80t-36 -56.5t-54.5 -33t-69.5 -10.5q-37 0 -68 10.5t-53.5 32.5t-35 56t-12.5 81v530h100zM118 740l44 137h60l-55 -137h-49zM214 740l44 137h60l-55 -137h-49z" />
    <glyph glyph-name="uhungarumlaut" unicode="&#x171;" horiz-adv-x="363" 
d="M340 0h-95v71h-7q-18 -39 -45.5 -60t-61.5 -21q-45 0 -76.5 37.5t-31.5 108.5v374h95v-364q0 -33 15.5 -54t41.5 -21q23 0 41.5 17t28.5 46v376h95v-510zM101 549l44 137h60l-55 -137h-49zM197 549l44 137h60l-55 -137h-49z" />
    <glyph glyph-name="Uogonek" unicode="&#x172;" horiz-adv-x="393" 
d="M127 700v-537q0 -48 22 -67t49 -19t49 19t22 67v537h100v-530q0 -46 -13 -80t-36 -56.5t-54.5 -33t-69.5 -10.5q-37 0 -68 10.5t-53.5 32.5t-35 56t-12.5 81v530h100zM260 8v-8q-37 -2 -60.5 -24.5t-23.5 -50.5q0 -22 13.5 -35.5t38.5 -13.5q18 0 39 7v-52
q-33 -10 -62 -10q-45 0 -70 22.5t-25 56.5q0 41 39 73.5t111 34.5z" />
    <glyph glyph-name="uogonek" unicode="&#x173;" horiz-adv-x="363" 
d="M340 0h-95v71h-7q-18 -39 -45.5 -60t-61.5 -21q-45 0 -76.5 37.5t-31.5 108.5v374h95v-364q0 -33 15.5 -54t41.5 -21q23 0 41.5 17t28.5 46v376h95v-510zM333 8v-8q-37 -2 -60.5 -24.5t-23.5 -50.5q0 -22 13.5 -35.5t38.5 -13.5q18 0 39 7v-52q-33 -10 -62 -10
q-45 0 -70 22.5t-25 56.5q0 41 39 73.5t111 34.5z" />
    <glyph glyph-name="Wcircumflex" unicode="&#x174;" horiz-adv-x="525" 
d="M107 700l53 -535h7l61 535h69l61 -535h7l53 535h101l-84 -700h-116l-54 439h-7l-54 -439h-115l-82 700h100zM172 740l52 137h75l52 -137h-55l-33 82h-4l-32 -82h-55z" />
    <glyph glyph-name="wcircumflex" unicode="&#x175;" horiz-adv-x="513" 
d="M102 510l52 -381h7l62 381h68l62 -381h7l52 381h95l-87 -510h-106l-54 312h-6l-54 -312h-106l-87 510h95zM167 550l52 137h75l52 -137h-55l-33 82h-4l-32 -82h-55z" />
    <glyph glyph-name="Ycircumflex" unicode="&#x176;" horiz-adv-x="354" 
d="M107 700l66 -360h7l66 360h100l-121 -501v-199h-100v199l-119 501h101zM87 740l52 137h75l52 -137h-55l-33 82h-4l-32 -82h-55z" />
    <glyph glyph-name="ycircumflex" unicode="&#x177;" horiz-adv-x="366" 
d="M342 -54q0 -72 -41.5 -114t-114.5 -42q-72 0 -114 41.5t-42 113.5v17h95v-12q0 -35 17 -56.5t44 -21.5q28 0 44.5 21.5t16.5 58.5v119h-7q-18 -39 -45.5 -60t-61.5 -21q-45 0 -76.5 37.5t-31.5 108.5v374h95v-364q0 -33 15.5 -54t41.5 -21q23 0 41.5 17t28.5 46v376h95
v-564zM92 549l52 137h75l52 -137h-55l-33 82h-4l-32 -82h-55z" />
    <glyph glyph-name="Zacute" unicode="&#x179;" horiz-adv-x="352" 
d="M327 700v-87l-209 -521l4 -5h216v-87h-323v87l209 521l-5 5h-194v87h302zM142 740l44 137h75l-55 -137h-64z" />
    <glyph glyph-name="zacute" unicode="&#x17a;" horiz-adv-x="319" 
d="M18 0v81l167 341l-3 6h-156v82h265v-81l-166 -341l3 -6h173v-82h-283zM129 549l44 137h75l-55 -137h-64z" />
    <glyph glyph-name="Zdotaccent" unicode="&#x17b;" horiz-adv-x="352" 
d="M327 700v-87l-209 -521l4 -5h216v-87h-323v87l209 521l-5 5h-194v87h302zM127 810q0 23 10.5 36.5t37.5 13.5t38 -13.5t11 -36.5t-10.5 -36.5t-37.5 -13.5t-38 13.5t-11 36.5z" />
    <glyph glyph-name="zdotaccent" unicode="&#x17c;" horiz-adv-x="319" 
d="M18 0v81l167 341l-3 6h-156v82h265v-81l-166 -341l3 -6h173v-82h-283zM114 619q0 23 10.5 36.5t37.5 13.5t38 -13.5t11 -36.5t-10.5 -36.5t-37.5 -13.5t-38 13.5t-11 36.5z" />
    <glyph glyph-name="longs" unicode="&#x17f;" horiz-adv-x="535" 
d="M32 700h474v-700h-474v700zM269 391l156 259h-313zM82 83l162 267l-162 267v-534zM456 83v534l-162 -267zM112 50h313l-156 259z" />
    <glyph glyph-name="uni0326" unicode="&#x326;" horiz-adv-x="158" 
d="M46 -10h81l-43 -137h-53z" />
    <glyph glyph-name="commaaccent2" horiz-adv-x="163" 
d="M61 -10h71l-58 -242h-43z" />
    <glyph glyph-name="dotaccent2" horiz-adv-x="159" 
d="M31 632q0 23 10.5 36.5t37.5 13.5t38 -13.5t11 -36.5t-11 -36t-38 -13t-37.5 13.5t-10.5 35.5z" />
    <glyph glyph-name="ogonek.case" horiz-adv-x="219" 
d="M162 -5l2 -8q-31 -5 -49 -26t-18 -46q0 -22 13.5 -35.5t38.5 -13.5q18 0 39 7v-52q-33 -10 -62 -10q-45 0 -70 22.5t-25 55.5q0 38 33.5 69t97.5 37z" />
    <glyph glyph-name="uni0326.case" horiz-adv-x="159" 
d="M112 -182h-81l44 136h53z" />
    <glyph glyph-name="uni0237" unicode="&#x237;" horiz-adv-x="158" 
d="M126 -60q0 -75 -31 -112.5t-86 -37.5q-26 0 -59 9l2 82q9 -2 16 -3.5t14 -1.5q49 0 49 62v572h95v-570z" />
    <glyph glyph-name="dotaccent3" horiz-adv-x="159" 
d="M109 632q0 23 10.5 36.5t37.5 13.5t38 -13.5t11 -36.5t-11 -36t-38 -13t-37.5 13.5t-10.5 35.5z" />
    <glyph glyph-name="commaaccent3" horiz-adv-x="173" 
d="M61 -10h81l-58 -242h-53z" />
    <glyph glyph-name="bartnew" horiz-adv-x="307" 
d="M277 311h-246v57h246v-57z" />
    <glyph glyph-name="commaaccent4" horiz-adv-x="173" 
d="M61 -10h66l-38 -162h-48z" />
    </font>
</defs>
</svg>
