<?xml version="1.0" standalone="no"?>
<!DOCTYPE svg PUBLIC "-//W3C//DTD SVG 1.1//EN" "http://www.w3.org/Graphics/SVG/1.1/DTD/svg11.dtd" >
<svg xmlns="http://www.w3.org/2000/svg" xmlns:xlink="http://www.w3.org/1999/xlink" version="1.1">
<metadata>
Created by FontForge 20201107 at Wed Jan 11 18:14:54 2023
 By Unknown
Copyright 2019 The Sofia Sans Project Authors (https://github.com/lettersoup/Sofia-Sans)
</metadata>
<defs>
<font id="SofiaSans-ExtraBold" horiz-adv-x="0" >
  <font-face 
    font-family="Sofia Sans ExtraBold"
    font-weight="800"
    font-stretch="normal"
    units-per-em="1000"
    panose-1="0 0 0 0 0 0 0 0 0 0"
    ascent="800"
    descent="-200"
    x-height="495"
    cap-height="655"
    bbox="-144.471 -264 1306 939"
    underline-thickness="50"
    underline-position="-125"
    unicode-range="U+000D-FB02"
  />
<missing-glyph horiz-adv-x="562" 
d="M101 0q-5 0 -8.5 4t-3.5 9v641q0 6 3.5 9.5t8.5 3.5h360q6 0 9.5 -3.5t3.5 -9.5v-641q0 -5 -3.5 -9t-9.5 -4h-360zM195 106h173v455h-173v-455z" />
    <glyph glyph-name="f_f" unicode="ff" horiz-adv-x="793" 
d="M112 0q-5 0 -9 4t-4 9v366h-72q-5 0 -9 4t-4 9v90q0 6 4 9.5t9 3.5h72v35q0 82 45.5 123.5t131.5 41.5q35 0 65.5 -4t48.5 -10q14 -4 14 -16v-84q0 -8 -4.5 -10.5t-15.5 0.5q-16 6 -36 10t-41 4q-36 0 -52.5 -16t-16.5 -48v-26h118q14 0 14 -14v-89q0 -5 -4 -9t-9 -4
h-119v-366q0 -5 -3.5 -9t-9.5 -4h-113zM514 0q-5 0 -9 4t-4 9v366h-72q-5 0 -9 4t-4 9v90q0 6 4 9.5t9 3.5h72v35q0 82 45.5 123.5t131.5 41.5q35 0 65.5 -4t48.5 -10q14 -4 14 -16v-84q0 -8 -4.5 -10.5t-15.5 0.5q-16 6 -36 10t-41 4q-36 0 -52.5 -16t-16.5 -48v-26h118
q14 0 14 -14v-89q0 -5 -4 -9t-9 -4h-119v-366q0 -5 -3.5 -9t-9.5 -4h-113z" />
    <glyph glyph-name="f_i" unicode="fi" horiz-adv-x="589" 
d="M112 0q-5 0 -9 4t-4 9v366h-72q-5 0 -9 4t-4 9v90q0 6 4 9.5t9 3.5h72v33q0 85 46 126t140 41q35 0 69 -4t54 -8q9 -2 9 -13v-84q0 -15 -15 -11q-21 5 -44 8t-46 3q-38 0 -56 -14.5t-18 -45.5v-31h282q13 0 13 -13v-469q0 -13 -13 -13h-113q-13 0 -13 13v366h-156v-366
q0 -5 -3.5 -9t-9.5 -4h-113z" />
    <glyph glyph-name="f_l" unicode="fl" horiz-adv-x="588" 
d="M112 0q-5 0 -9 4t-4 9v366h-72q-5 0 -9 4t-4 9v90q0 6 4 9.5t9 3.5h72v33q0 87 47 127t139 40q39 0 73.5 -5t55.5 -10l105 3q13 0 13 -13v-657q0 -13 -13 -13h-113q-13 0 -13 13v564q-19 4 -40 6.5t-41 2.5q-38 0 -56 -14.5t-18 -45.5v-31h72q5 0 9 -3.5t4 -9.5v-90
q0 -5 -4 -9t-9 -4h-72v-366q0 -5 -3.5 -9t-9.5 -4h-113z" />
    <glyph glyph-name=".notdef" horiz-adv-x="562" 
d="M101 0q-5 0 -8.5 4t-3.5 9v641q0 6 3.5 9.5t8.5 3.5h360q6 0 9.5 -3.5t3.5 -9.5v-641q0 -5 -3.5 -9t-9.5 -4h-360zM195 106h173v455h-173v-455z" />
    <glyph glyph-name="A" unicode="A" horiz-adv-x="604" 
d="M8 0q-14 0 -10 14l212 631q4 10 15 10h153q11 0 14 -10l214 -631q4 -14 -10 -14h-129q-11 0 -14 10l-115 387q-10 34 -19 68.5t-18 68.5h-2q-9 -34 -18 -68.5t-19 -68.5l-113 -386q-3 -11 -14 -11h-127zM162 127l24 114h225l26 -114h-275z" />
    <glyph glyph-name="Aacute" unicode="&#xc1;" horiz-adv-x="604" 
d="M8 0q-14 0 -10 14l212 631q4 10 15 10h153q11 0 14 -10l214 -631q4 -14 -10 -14h-129q-11 0 -14 10l-115 387q-10 34 -19 68.5t-18 68.5h-2q-9 -34 -18 -68.5t-19 -68.5l-113 -386q-3 -11 -14 -11h-127zM162 127l24 114h225l26 -114h-275zM227 708q-6 0 -8 3.5t1 9.5
l61 112q5 10 14 10h104q6 0 7.5 -4.5t-2.5 -10.5l-84 -113q-5 -7 -14 -7h-79z" />
    <glyph glyph-name="Abreve" unicode="&#x102;" horiz-adv-x="604" 
d="M8 0q-14 0 -10 14l212 631q4 10 15 10h153q11 0 14 -10l214 -631q4 -14 -10 -14h-129q-11 0 -14 10l-115 387q-10 34 -19 68.5t-18 68.5h-2q-9 -34 -18 -68.5t-19 -68.5l-113 -386q-3 -11 -14 -11h-127zM162 127l24 114h225l26 -114h-275zM302 709q-47 0 -86 17.5
t-55 32.5q-5 4 -5 14v73q0 9 4 11t10 -3q21 -15 57.5 -31.5t74.5 -16.5q39 0 75 16.5t57 31.5q6 5 10 3t4 -11v-73q0 -10 -5 -14q-16 -15 -55 -32.5t-86 -17.5z" />
    <glyph glyph-name="Acircumflex" unicode="&#xc2;" horiz-adv-x="604" 
d="M8 0q-14 0 -10 14l212 631q4 10 15 10h153q11 0 14 -10l214 -631q4 -14 -10 -14h-129q-11 0 -14 10l-115 387q-10 34 -19 68.5t-18 68.5h-2q-9 -34 -18 -68.5t-19 -68.5l-113 -386q-3 -11 -14 -11h-127zM162 127l24 114h225l26 -114h-275zM167 712q-13 -6 -13 7v72
q0 9 8 13l131 60q8 5 17 0l131 -60q8 -4 8 -13v-72q0 -13 -13 -7l-135 52z" />
    <glyph glyph-name="Adieresis" unicode="&#xc4;" horiz-adv-x="604" 
d="M8 0q-14 0 -10 14l212 631q4 10 15 10h153q11 0 14 -10l214 -631q4 -14 -10 -14h-129q-11 0 -14 10l-115 387q-10 34 -19 68.5t-18 68.5h-2q-9 -34 -18 -68.5t-19 -68.5l-113 -386q-3 -11 -14 -11h-127zM162 127l24 114h225l26 -114h-275zM202 708q-34 0 -52 17.5
t-18 47.5v17q0 31 18 47.5t52 16.5q36 0 53.5 -16.5t17.5 -47.5v-17q0 -30 -17.5 -47.5t-53.5 -17.5zM401 708q-34 0 -52 17.5t-18 47.5v17q0 31 18 47.5t52 16.5q35 0 53 -16.5t18 -47.5v-17q0 -30 -18 -47.5t-53 -17.5z" />
    <glyph glyph-name="Agrave" unicode="&#xc0;" horiz-adv-x="604" 
d="M8 0q-14 0 -10 14l212 631q4 10 15 10h153q11 0 14 -10l214 -631q4 -14 -10 -14h-129q-11 0 -14 10l-115 387q-10 34 -19 68.5t-18 68.5h-2q-9 -34 -18 -68.5t-19 -68.5l-113 -386q-3 -11 -14 -11h-127zM162 127l24 114h225l26 -114h-275zM291 708q-9 0 -14 7l-84 113
q-4 6 -2 10.5t8 4.5h103q11 0 15 -10l60 -112q3 -6 1.5 -9.5t-7.5 -3.5h-80z" />
    <glyph glyph-name="Amacron" unicode="&#x100;" horiz-adv-x="604" 
d="M8 0q-14 0 -10 14l212 631q4 10 15 10h153q11 0 14 -10l214 -631q4 -14 -10 -14h-129q-11 0 -14 10l-115 387q-10 34 -19 68.5t-18 68.5h-2q-9 -34 -18 -68.5t-19 -68.5l-113 -386q-3 -11 -14 -11h-127zM162 127l24 114h225l26 -114h-275zM182 716q-13 0 -13 13v74
q0 13 13 13h239q13 0 13 -13v-74q0 -13 -13 -13h-239z" />
    <glyph glyph-name="Aogonek" unicode="&#x104;" horiz-adv-x="604" 
d="M8 0q-14 0 -10 14l212 631q4 10 15 10h153q11 0 14 -10l214 -631q4 -14 -10 -14h-129q-11 0 -14 10l-115 387q-10 34 -19 68.5t-18 68.5h-2q-9 -34 -18 -68.5t-19 -68.5l-113 -386q-3 -11 -14 -11h-127zM162 127l24 114h225l26 -114h-275zM532 -197q-51 0 -80 23.5
t-29 60.5v11q0 46 38.5 79.5t109.5 51.5l16 -15l-2 -11q-27 -11 -41.5 -28.5t-14.5 -38.5v-6q0 -26 33 -26q8 0 15 0.5t15 1.5q10 2 10 -9v-75q0 -6 -1.5 -8t-8.5 -4q-14 -4 -30 -5.5t-30 -1.5z" />
    <glyph glyph-name="Aring" unicode="&#xc5;" horiz-adv-x="604" 
d="M606 14q4 -14 -10 -14h-129q-11 0 -14 10l-35 117h-235l-34 -116q-3 -11 -14 -11h-127q-14 0 -10 14l202 603q-12 12 -18.5 30t-6.5 40q0 54 33.5 83t93.5 29t94 -29t34 -83q0 -23 -7 -41t-21 -30zM260 685q0 -21 10.5 -33.5t31.5 -12.5q22 0 32 12.5t10 33.5
q0 22 -10 34t-32 12q-21 0 -31.5 -12t-10.5 -34zM215 241h171l-48 156q-10 34 -19 70t-18 70h-2q-9 -35 -18 -70.5t-19 -69.5z" />
    <glyph glyph-name="Atilde" unicode="&#xc3;" horiz-adv-x="604" 
d="M8 0q-14 0 -10 14l212 631q4 10 15 10h153q11 0 14 -10l214 -631q4 -14 -10 -14h-129q-11 0 -14 10l-115 387q-10 34 -19 68.5t-18 68.5h-2q-9 -34 -18 -68.5t-19 -68.5l-113 -386q-3 -11 -14 -11h-127zM162 127l24 114h225l26 -114h-275zM358 717q-22 0 -40 7
t-35.5 14.5t-37.5 7.5q-21 0 -40.5 -7t-34.5 -14q-15 -8 -15 9v65q0 11 7 16q13 9 35 19t49 10q28 0 46.5 -7t34 -15t35.5 -8t39.5 6.5t33.5 14.5q15 8 15 -8v-65q0 -10 -7 -16q-13 -10 -35.5 -19.5t-49.5 -9.5z" />
    <glyph glyph-name="AE" unicode="&#xc6;" horiz-adv-x="854" 
d="M8 0q-6 0 -9 4t0 11l279 630q4 10 15 10h495q13 0 13 -13v-99q0 -12 -13 -12h-269v-142h245q13 0 13 -13v-92q0 -12 -13 -12h-245v-148h269q13 0 13 -12v-99q0 -13 -13 -13h-396q-13 0 -13 13v114h-176l-50 -117q-4 -10 -15 -10h-130zM248 241h131v192v58t1 61h-2
q-10 -31 -21 -60.5t-23 -58.5z" />
    <glyph glyph-name="B" unicode="B" horiz-adv-x="597" 
d="M79 0q-13 0 -13 13v629q0 13 13 13h212q121 0 182.5 -40t61.5 -121q0 -58 -26 -92.5t-80 -54.5v-3q64 -12 99 -49t35 -104q0 -101 -64.5 -146t-208.5 -45h-211zM209 117h87q66 0 95 18.5t29 63.5q0 42 -29.5 62t-94.5 20h-87v-164zM209 386h79q55 0 79.5 19.5t24.5 59.5
q0 38 -26.5 56t-83.5 18h-73v-153z" />
    <glyph glyph-name="C" unicode="C" horiz-adv-x="650" 
d="M326 -12q-130 0 -201 63.5t-71 190.5v169q0 129 71.5 192.5t201.5 63.5q91 0 155 -29t94.5 -82.5t20.5 -125.5q-1 -5 -4 -9.5t-9 -4.5h-118q-12 0 -11 13q1 53 -29.5 84t-96.5 31q-63 0 -97.5 -33.5t-34.5 -103.5v-159q0 -70 34.5 -103.5t97.5 -33.5q68 0 98.5 32.5
t27.5 82.5q-1 13 11 13h117q12 0 14 -14q7 -72 -24 -125.5t-94 -82.5t-153 -29z" />
    <glyph glyph-name="Cacute" unicode="&#x106;" horiz-adv-x="650" 
d="M326 -12q-130 0 -201 63.5t-71 190.5v169q0 129 71.5 192.5t201.5 63.5q91 0 155 -29t94.5 -82.5t20.5 -125.5q-1 -5 -4 -9.5t-9 -4.5h-118q-12 0 -11 13q1 53 -29.5 84t-96.5 31q-63 0 -97.5 -33.5t-34.5 -103.5v-159q0 -70 34.5 -103.5t97.5 -33.5q68 0 98.5 32.5
t27.5 82.5q-1 13 11 13h117q12 0 14 -14q7 -72 -24 -125.5t-94 -82.5t-153 -29zM251 708q-6 0 -8 3.5t1 9.5l61 112q5 10 14 10h104q6 0 7.5 -4.5t-2.5 -10.5l-84 -113q-5 -7 -14 -7h-79z" />
    <glyph glyph-name="Ccaron" unicode="&#x10c;" horiz-adv-x="650" 
d="M326 -12q-130 0 -201 63.5t-71 190.5v169q0 129 71.5 192.5t201.5 63.5q91 0 155 -29t94.5 -82.5t20.5 -125.5q-1 -5 -4 -9.5t-9 -4.5h-118q-12 0 -11 13q1 53 -29.5 84t-96.5 31q-63 0 -97.5 -33.5t-34.5 -103.5v-159q0 -70 34.5 -103.5t97.5 -33.5q68 0 98.5 32.5
t27.5 82.5q-1 13 11 13h117q12 0 14 -14q7 -72 -24 -125.5t-94 -82.5t-153 -29zM317 712l-131 61q-8 3 -8 13v72q0 13 13 7l134 -52l135 52q13 6 13 -7v-72q0 -10 -8 -13l-131 -61q-9 -4 -17 0z" />
    <glyph glyph-name="Ccedilla" unicode="&#xc7;" horiz-adv-x="650" 
d="M326 -12q-130 0 -201 63.5t-71 190.5v169q0 129 71.5 192.5t201.5 63.5q91 0 155 -29t94.5 -82.5t20.5 -125.5q-1 -5 -4 -9.5t-9 -4.5h-118q-12 0 -11 13q1 53 -29.5 84t-96.5 31q-63 0 -97.5 -33.5t-34.5 -103.5v-159q0 -70 34.5 -103.5t97.5 -33.5q68 0 98.5 32.5
t27.5 82.5q-1 13 11 13h117q12 0 14 -14q7 -72 -24 -125.5t-94 -82.5t-153 -29zM319 -197q-17 0 -30 1.5t-25 3.5q-10 1 -10 10v52q0 10 9 9q6 -1 15 -1.5t16 -0.5q20 0 28.5 6.5t8.5 16.5v8q0 12 -7.5 17t-23.5 5h-22q-7 0 -7 6q0 5 0.5 11.5t1.5 10.5l25 80q3 8 12 8h72
q10 0 6 -13l-22 -65h8q28 0 44 -17t16 -46v-17q0 -40 -27.5 -62.5t-87.5 -22.5z" />
    <glyph glyph-name="Cdotaccent" unicode="&#x10a;" horiz-adv-x="650" 
d="M326 -12q-130 0 -201 63.5t-71 190.5v169q0 129 71.5 192.5t201.5 63.5q91 0 155 -29t94.5 -82.5t20.5 -125.5q-1 -5 -4 -9.5t-9 -4.5h-118q-12 0 -11 13q1 53 -29.5 84t-96.5 31q-63 0 -97.5 -33.5t-34.5 -103.5v-159q0 -70 34.5 -103.5t97.5 -33.5q68 0 98.5 32.5
t27.5 82.5q-1 13 11 13h117q12 0 14 -14q7 -72 -24 -125.5t-94 -82.5t-153 -29zM325 720q-37 0 -57 19t-20 51v18q0 32 20 50.5t57 18.5q38 0 57.5 -18.5t19.5 -50.5v-18q0 -32 -19.5 -51t-57.5 -19z" />
    <glyph glyph-name="D" unicode="D" horiz-adv-x="654" 
d="M79 0q-13 0 -13 13v629q0 13 13 13h218q157 0 233 -72.5t76 -214.5v-67q0 -150 -75.5 -225.5t-233.5 -75.5h-218zM209 122h79q91 0 133.5 46t42.5 136v61q0 83 -42.5 125.5t-133.5 42.5h-79v-411z" />
    <glyph glyph-name="Eth" unicode="&#xd0;" horiz-adv-x="654" 
d="M12 277q-13 0 -13 13v80q0 13 13 13h54h242q13 0 13 -13v-80q0 -13 -13 -13h-296zM79 0q-13 0 -13 13v629q0 13 13 13h218q157 0 233 -72.5t76 -214.5v-67q0 -150 -75.5 -225.5t-233.5 -75.5h-218zM209 122h79q91 0 133.5 46t42.5 136v61q0 83 -42.5 125.5t-133.5 42.5
h-79v-411z" />
    <glyph glyph-name="Dcaron" unicode="&#x10e;" horiz-adv-x="654" 
d="M79 0q-13 0 -13 13v629q0 13 13 13h218q157 0 233 -72.5t76 -214.5v-67q0 -150 -75.5 -225.5t-233.5 -75.5h-218zM209 122h79q91 0 133.5 46t42.5 136v61q0 83 -42.5 125.5t-133.5 42.5h-79v-411zM290 712l-131 61q-8 3 -8 13v72q0 13 13 7l134 -52l135 52q13 6 13 -7
v-72q0 -10 -8 -13l-131 -61q-9 -4 -17 0z" />
    <glyph glyph-name="Dcroat" unicode="&#x110;" horiz-adv-x="654" 
d="M12 277q-13 0 -13 13v80q0 13 13 13h54h242q13 0 13 -13v-80q0 -13 -13 -13h-296zM79 0q-13 0 -13 13v629q0 13 13 13h218q157 0 233 -72.5t76 -214.5v-67q0 -150 -75.5 -225.5t-233.5 -75.5h-218zM209 122h79q91 0 133.5 46t42.5 136v61q0 83 -42.5 125.5t-133.5 42.5
h-79v-411z" />
    <glyph glyph-name="E" unicode="E" horiz-adv-x="544" 
d="M79 0q-13 0 -13 13v629q0 13 13 13h399q13 0 13 -13v-99q0 -12 -13 -12h-269v-142h245q13 0 13 -13v-92q0 -12 -13 -12h-245v-148h269q13 0 13 -12v-99q0 -13 -13 -13h-399z" />
    <glyph glyph-name="Eacute" unicode="&#xc9;" horiz-adv-x="544" 
d="M79 0q-13 0 -13 13v629q0 13 13 13h399q13 0 13 -13v-99q0 -12 -13 -12h-269v-142h245q13 0 13 -13v-92q0 -12 -13 -12h-245v-148h269q13 0 13 -12v-99q0 -13 -13 -13h-399zM201 708q-6 0 -8 3.5t1 9.5l61 112q5 10 14 10h104q6 0 7.5 -4.5t-2.5 -10.5l-84 -113
q-5 -7 -14 -7h-79z" />
    <glyph glyph-name="Ecaron" unicode="&#x11a;" horiz-adv-x="544" 
d="M79 0q-13 0 -13 13v629q0 13 13 13h399q13 0 13 -13v-99q0 -12 -13 -12h-269v-142h245q13 0 13 -13v-92q0 -12 -13 -12h-245v-148h269q13 0 13 -12v-99q0 -13 -13 -13h-399zM268 712l-131 61q-8 3 -8 13v72q0 13 13 7l134 -52l135 52q13 6 13 -7v-72q0 -10 -8 -13
l-131 -61q-9 -4 -17 0z" />
    <glyph glyph-name="Ecircumflex" unicode="&#xca;" horiz-adv-x="544" 
d="M79 0q-13 0 -13 13v629q0 13 13 13h399q13 0 13 -13v-99q0 -12 -13 -12h-269v-142h245q13 0 13 -13v-92q0 -12 -13 -12h-245v-148h269q13 0 13 -12v-99q0 -13 -13 -13h-399zM142 712q-13 -6 -13 7v72q0 9 8 13l131 60q8 5 17 0l131 -60q8 -4 8 -13v-72q0 -13 -13 -7
l-135 52z" />
    <glyph glyph-name="Edieresis" unicode="&#xcb;" horiz-adv-x="544" 
d="M79 0q-13 0 -13 13v629q0 13 13 13h399q13 0 13 -13v-99q0 -12 -13 -12h-269v-142h245q13 0 13 -13v-92q0 -12 -13 -12h-245v-148h269q13 0 13 -12v-99q0 -13 -13 -13h-399zM176 708q-34 0 -52 17.5t-18 47.5v17q0 31 18 47.5t52 16.5q36 0 53.5 -16.5t17.5 -47.5v-17
q0 -30 -17.5 -47.5t-53.5 -17.5zM375 708q-34 0 -52 17.5t-18 47.5v17q0 31 18 47.5t52 16.5q35 0 53 -16.5t18 -47.5v-17q0 -30 -18 -47.5t-53 -17.5z" />
    <glyph glyph-name="Edotaccent" unicode="&#x116;" horiz-adv-x="544" 
d="M79 0q-13 0 -13 13v629q0 13 13 13h399q13 0 13 -13v-99q0 -12 -13 -12h-269v-142h245q13 0 13 -13v-92q0 -12 -13 -12h-245v-148h269q13 0 13 -12v-99q0 -13 -13 -13h-399zM276 720q-37 0 -57 19t-20 51v18q0 32 20 50.5t57 18.5q38 0 57.5 -18.5t19.5 -50.5v-18
q0 -32 -19.5 -51t-57.5 -19z" />
    <glyph glyph-name="Egrave" unicode="&#xc8;" horiz-adv-x="544" 
d="M79 0q-13 0 -13 13v629q0 13 13 13h399q13 0 13 -13v-99q0 -12 -13 -12h-269v-142h245q13 0 13 -13v-92q0 -12 -13 -12h-245v-148h269q13 0 13 -12v-99q0 -13 -13 -13h-399zM265 708q-9 0 -14 7l-84 113q-4 6 -2 10.5t8 4.5h103q11 0 15 -10l60 -112q3 -6 1.5 -9.5
t-7.5 -3.5h-80z" />
    <glyph glyph-name="Emacron" unicode="&#x112;" horiz-adv-x="544" 
d="M79 0q-13 0 -13 13v629q0 13 13 13h399q13 0 13 -13v-99q0 -12 -13 -12h-269v-142h245q13 0 13 -13v-92q0 -12 -13 -12h-245v-148h269q13 0 13 -12v-99q0 -13 -13 -13h-399zM156 716q-13 0 -13 13v74q0 13 13 13h239q13 0 13 -13v-74q0 -13 -13 -13h-239z" />
    <glyph glyph-name="Eogonek" unicode="&#x118;" horiz-adv-x="544" 
d="M79 0q-13 0 -13 13v629q0 13 13 13h399q13 0 13 -13v-99q0 -12 -13 -12h-269v-142h245q13 0 13 -13v-92q0 -12 -13 -12h-245v-148h269q13 0 13 -12v-99q0 -13 -13 -13h-399zM398 -197q-51 0 -80 23.5t-29 60.5v11q0 46 38.5 79.5t109.5 51.5l16 -15l-2 -11
q-27 -11 -41.5 -28.5t-14.5 -38.5v-6q0 -26 33 -26q8 0 15 0.5t15 1.5q10 2 10 -9v-75q0 -6 -1.5 -8t-8.5 -4q-14 -4 -30 -5.5t-30 -1.5z" />
    <glyph glyph-name="F" unicode="F" horiz-adv-x="523" 
d="M79 0q-13 0 -13 13v629q0 13 13 13h399q13 0 13 -13v-99q0 -12 -13 -12h-269v-151h231q13 0 13 -13v-95q0 -13 -13 -13h-231v-246q0 -13 -13 -13h-117z" />
    <glyph glyph-name="G" unicode="G" horiz-adv-x="664" 
d="M305 -12q-74 0 -130.5 28.5t-88.5 85t-32 140.5v171q0 126 73 190t201 64q93 0 155.5 -29t91 -79t20.5 -114q-2 -12 -14 -12h-117q-12 0 -11 14q1 30 -11.5 51.5t-40 33.5t-70.5 12q-66 0 -100 -33t-34 -104v-159q0 -71 34 -104t101 -33q63 0 95.5 28t32.5 80v28h-122
q-13 0 -13 13v75q0 13 13 13h246q12 0 12 -13v-176q0 -35 1.5 -74t7.5 -71q2 -6 -2 -10t-10 -4h-94q-5 0 -8 3t-5 8q-2 12 -3.5 29.5t-2.5 32.5h-2q-16 -25 -39.5 -44.5t-56.5 -30t-77 -10.5z" />
    <glyph glyph-name="Gbreve" unicode="&#x11e;" horiz-adv-x="664" 
d="M305 -12q-74 0 -130.5 28.5t-88.5 85t-32 140.5v171q0 126 73 190t201 64q93 0 155.5 -29t91 -79t20.5 -114q-2 -12 -14 -12h-117q-12 0 -11 14q1 30 -11.5 51.5t-40 33.5t-70.5 12q-66 0 -100 -33t-34 -104v-159q0 -71 34 -104t101 -33q63 0 95.5 28t32.5 80v28h-122
q-13 0 -13 13v75q0 13 13 13h246q12 0 12 -13v-176q0 -35 1.5 -74t7.5 -71q2 -6 -2 -10t-10 -4h-94q-5 0 -8 3t-5 8q-2 12 -3.5 29.5t-2.5 32.5h-2q-16 -25 -39.5 -44.5t-56.5 -30t-77 -10.5zM325 709q-47 0 -86 17.5t-55 32.5q-5 4 -5 14v73q0 9 4 11t10 -3
q21 -15 57.5 -31.5t74.5 -16.5q39 0 75 16.5t57 31.5q6 5 10 3t4 -11v-73q0 -10 -5 -14q-16 -15 -55 -32.5t-86 -17.5z" />
    <glyph glyph-name="uni0122" unicode="&#x122;" horiz-adv-x="664" 
d="M305 -12q-74 0 -130.5 28.5t-88.5 85t-32 140.5v171q0 126 73 190t201 64q93 0 155.5 -29t91 -79t20.5 -114q-2 -12 -14 -12h-117q-12 0 -11 14q1 30 -11.5 51.5t-40 33.5t-70.5 12q-66 0 -100 -33t-34 -104v-159q0 -71 34 -104t101 -33q63 0 95.5 28t32.5 80v28h-122
q-13 0 -13 13v75q0 13 13 13h246q12 0 12 -13v-176q0 -35 1.5 -74t7.5 -71q2 -6 -2 -10t-10 -4h-94q-5 0 -8 3t-5 8q-2 12 -3.5 29.5t-2.5 32.5h-2q-16 -25 -39.5 -44.5t-56.5 -30t-77 -10.5zM289 -258q-10 0 -7 12l13 69q-15 6 -23 19t-8 33v18q0 28 16.5 42.5t46.5 14.5
q33 0 49 -14.5t16 -42.5v-20q0 -14 -2 -26.5t-7 -26.5l-23 -69q-3 -9 -13 -9h-58z" />
    <glyph glyph-name="Gdotaccent" unicode="&#x120;" horiz-adv-x="664" 
d="M305 -12q-74 0 -130.5 28.5t-88.5 85t-32 140.5v171q0 126 73 190t201 64q93 0 155.5 -29t91 -79t20.5 -114q-2 -12 -14 -12h-117q-12 0 -11 14q1 30 -11.5 51.5t-40 33.5t-70.5 12q-66 0 -100 -33t-34 -104v-159q0 -71 34 -104t101 -33q63 0 95.5 28t32.5 80v28h-122
q-13 0 -13 13v75q0 13 13 13h246q12 0 12 -13v-176q0 -35 1.5 -74t7.5 -71q2 -6 -2 -10t-10 -4h-94q-5 0 -8 3t-5 8q-2 12 -3.5 29.5t-2.5 32.5h-2q-16 -25 -39.5 -44.5t-56.5 -30t-77 -10.5zM325 720q-37 0 -57 19t-20 51v18q0 32 20 50.5t57 18.5q38 0 57.5 -18.5
t19.5 -50.5v-18q0 -32 -19.5 -51t-57.5 -19z" />
    <glyph glyph-name="H" unicode="H" horiz-adv-x="672" 
d="M79 0q-13 0 -13 13v629q0 13 13 13h117q13 0 13 -13v-249h255v249q0 13 13 13h116q13 0 13 -13v-629q0 -13 -13 -13h-116q-13 0 -13 13v257h-255v-257q0 -13 -13 -13h-117z" />
    <glyph glyph-name="Hbar" unicode="&#x126;" horiz-adv-x="672" 
d="M24 497q-13 0 -13 13v69q0 13 13 13h624q13 0 13 -13v-69q0 -13 -13 -13h-42h-540h-42zM79 0q-13 0 -13 13v629q0 13 13 13h117q13 0 13 -13v-249h255v249q0 13 13 13h116q13 0 13 -13v-629q0 -13 -13 -13h-116q-13 0 -13 13v257h-255v-257q0 -13 -13 -13h-117z" />
    <glyph glyph-name="I" unicode="I" horiz-adv-x="275" 
d="M79 0q-13 0 -13 13v629q0 13 13 13h117q13 0 13 -13v-629q0 -13 -13 -13h-117z" />
    <glyph glyph-name="IJ" unicode="&#x132;" horiz-adv-x="560" 
d="M79 0q-13 0 -13 13v629q0 13 13 13h117q13 0 13 -13v-629q0 -13 -13 -13h-117zM313 -159q-18 -3 -22 8l-30 95q-4 14 14 18q38 8 57 42t19 95v543q0 13 13 13h117q13 0 13 -13v-533q0 -121 -45 -187.5t-136 -80.5z" />
    <glyph glyph-name="Iacute" unicode="&#xcd;" horiz-adv-x="275" 
d="M79 0q-13 0 -13 13v629q0 13 13 13h117q13 0 13 -13v-629q0 -13 -13 -13h-117zM64 708q-6 0 -8 3.5t1 9.5l61 112q5 10 14 10h104q6 0 7.5 -4.5t-2.5 -10.5l-84 -113q-5 -7 -14 -7h-79z" />
    <glyph glyph-name="Icircumflex" unicode="&#xce;" horiz-adv-x="275" 
d="M79 0q-13 0 -13 13v629q0 13 13 13h117q13 0 13 -13v-629q0 -13 -13 -13h-117zM4 712q-13 -6 -13 7v72q0 9 8 13l131 60q8 5 17 0l131 -60q8 -4 8 -13v-72q0 -13 -13 -7l-135 52z" />
    <glyph glyph-name="Idieresis" unicode="&#xcf;" horiz-adv-x="275" 
d="M79 0q-13 0 -13 13v629q0 13 13 13h117q13 0 13 -13v-629q0 -13 -13 -13h-117zM39 708q-34 0 -52 17.5t-18 47.5v17q0 31 18 47.5t52 16.5q36 0 53.5 -16.5t17.5 -47.5v-17q0 -30 -17.5 -47.5t-53.5 -17.5zM238 708q-34 0 -52 17.5t-18 47.5v17q0 31 18 47.5t52 16.5
q35 0 53 -16.5t18 -47.5v-17q0 -30 -18 -47.5t-53 -17.5z" />
    <glyph glyph-name="Idotaccent" unicode="&#x130;" horiz-adv-x="275" 
d="M79 0q-13 0 -13 13v629q0 13 13 13h117q13 0 13 -13v-629q0 -13 -13 -13h-117zM139 720q-37 0 -57 19t-20 51v18q0 32 20 50.5t57 18.5q38 0 57.5 -18.5t19.5 -50.5v-18q0 -32 -19.5 -51t-57.5 -19z" />
    <glyph glyph-name="Igrave" unicode="&#xcc;" horiz-adv-x="275" 
d="M79 0q-13 0 -13 13v629q0 13 13 13h117q13 0 13 -13v-629q0 -13 -13 -13h-117zM128 708q-9 0 -14 7l-84 113q-4 6 -2 10.5t8 4.5h103q11 0 15 -10l60 -112q3 -6 1.5 -9.5t-7.5 -3.5h-80z" />
    <glyph glyph-name="Imacron" unicode="&#x12a;" horiz-adv-x="275" 
d="M79 0q-13 0 -13 13v629q0 13 13 13h117q13 0 13 -13v-629q0 -13 -13 -13h-117zM19 716q-13 0 -13 13v74q0 13 13 13h239q13 0 13 -13v-74q0 -13 -13 -13h-239z" />
    <glyph glyph-name="Iogonek" unicode="&#x12e;" horiz-adv-x="275" 
d="M79 0q-13 0 -13 13v629q0 13 13 13h117q13 0 13 -13v-629q0 -13 -13 -13h-117zM144 -197q-51 0 -80 23.5t-29 60.5v11q0 46 38.5 79.5t109.5 51.5l16 -15l-2 -11q-27 -11 -41.5 -28.5t-14.5 -38.5v-6q0 -26 33 -26q8 0 15 0.5t15 1.5q10 2 10 -9v-75q0 -6 -1.5 -8
t-8.5 -4q-14 -4 -30 -5.5t-30 -1.5z" />
    <glyph glyph-name="J" unicode="J" horiz-adv-x="285" 
d="M38 -159q-18 -3 -22 8l-30 95q-4 14 14 18q38 8 57 42t19 95v543q0 13 13 13h117q13 0 13 -13v-533q0 -121 -45 -187.5t-136 -80.5z" />
    <glyph glyph-name="K" unicode="K" horiz-adv-x="628" 
d="M79 0q-13 0 -13 13v629q0 13 13 13h117q13 0 13 -13v-158q0 -30 -0.5 -59.5t-3.5 -58.5h3q18 27 37.5 55t41.5 56l141 171q5 7 15 7h143q8 0 11 -4.5t-3 -10.5l-210 -250l232 -375q4 -6 1.5 -10.5t-9.5 -4.5h-143q-11 0 -16 9l-163 268l-77 -88v-176q0 -13 -13 -13h-117z
" />
    <glyph glyph-name="uni0136" unicode="&#x136;" horiz-adv-x="628" 
d="M79 0q-13 0 -13 13v629q0 13 13 13h117q13 0 13 -13v-158q0 -30 -0.5 -59.5t-3.5 -58.5h3q18 27 37.5 55t41.5 56l141 171q5 7 15 7h143q8 0 11 -4.5t-3 -10.5l-210 -250l232 -375q4 -6 1.5 -10.5t-9.5 -4.5h-143q-11 0 -16 9l-163 268l-77 -88v-176q0 -13 -13 -13h-117z
M283 -258q-10 0 -7 12l13 69q-15 6 -23 19t-8 33v18q0 28 16.5 42.5t46.5 14.5q33 0 49 -14.5t16 -42.5v-20q0 -14 -2 -26.5t-7 -26.5l-23 -69q-3 -9 -13 -9h-58z" />
    <glyph glyph-name="L" unicode="L" horiz-adv-x="494" 
d="M79 0q-13 0 -13 13v629q0 13 13 13h119q11 0 11 -13v-518h256q12 0 12 -12v-99q0 -13 -12 -13h-386z" />
    <glyph glyph-name="Lacute" unicode="&#x139;" horiz-adv-x="494" 
d="M79 0q-13 0 -13 13v629q0 13 13 13h119q11 0 11 -13v-518h256q12 0 12 -12v-99q0 -13 -12 -13h-386zM64 708q-6 0 -8 3.5t1 9.5l61 112q5 10 14 10h104q6 0 7.5 -4.5t-2.5 -10.5l-84 -113q-5 -7 -14 -7h-79z" />
    <glyph glyph-name="Lcaron" unicode="&#x13d;" horiz-adv-x="494" 
d="M79 0q-13 0 -13 13v629q0 13 13 13h119q11 0 11 -13v-518h256q12 0 12 -12v-99q0 -13 -12 -13h-386zM294 497q-9 0 -8 10l12 53q-12 5 -20 14.5t-8 27.5v19q0 22 15 34t43 12t42.5 -11.5t14.5 -33.5v-21q0 -11 -1.5 -22t-6.5 -23l-19 -51q-3 -8 -11 -8h-53z" />
    <glyph glyph-name="uni013B" unicode="&#x13b;" horiz-adv-x="494" 
d="M79 0q-13 0 -13 13v629q0 13 13 13h119q11 0 11 -13v-518h256q12 0 12 -12v-99q0 -13 -12 -13h-386zM236 -258q-10 0 -7 12l13 69q-15 6 -23 19t-8 33v18q0 28 16.5 42.5t46.5 14.5q33 0 49 -14.5t16 -42.5v-20q0 -14 -2 -26.5t-7 -26.5l-23 -69q-3 -9 -13 -9h-58z" />
    <glyph glyph-name="Lslash" unicode="&#x141;" horiz-adv-x="494" 
d="M8 248q-15 -5 -15 10v84q0 12 11 15l318 105q14 5 14 -10v-84q0 -11 -10 -14zM79 0q-13 0 -13 13v629q0 13 13 13h119q11 0 11 -13v-518h256q12 0 12 -12v-99q0 -13 -12 -13h-386z" />
    <glyph glyph-name="M" unicode="M" horiz-adv-x="796" 
d="M66 0q-13 0 -13 13l13 629q0 13 13 13h144q10 0 14 -10l162 -346l160 346q5 10 15 10h143q12 0 12 -13l14 -629q0 -13 -13 -13h-114q-13 0 -13 13l-6 273q-1 41 0.5 84.5t3.5 84.5h-3q-17 -40 -36 -82t-39 -81l-108 -219q-4 -8 -15 -8h-5q-10 0 -14 8l-109 221
q-19 39 -38 80.5t-35 80.5h-3q2 -41 3 -84t0 -83l-6 -275q0 -13 -13 -13h-114z" />
    <glyph glyph-name="N" unicode="N" horiz-adv-x="674" 
d="M79 0q-13 0 -13 13v629q0 13 13 13h159q10 0 15 -9l143 -288q15 -31 30 -62.5t27.5 -60.5t20.5 -54h3q-2 27 -3.5 59.5t-2.5 65t-1 58.5v278q0 13 12 13h113q13 0 13 -13v-629q0 -13 -13 -13h-157q-11 0 -15 9l-139 276q-14 29 -28 61.5t-27.5 64t-24.5 58.5h-3
q2 -29 2.5 -62t0.5 -66v-63v-265q0 -13 -13 -13h-112z" />
    <glyph glyph-name="Nacute" unicode="&#x143;" horiz-adv-x="674" 
d="M79 0q-13 0 -13 13v629q0 13 13 13h159q10 0 15 -9l143 -288q15 -31 30 -62.5t27.5 -60.5t20.5 -54h3q-2 27 -3.5 59.5t-2.5 65t-1 58.5v278q0 13 12 13h113q13 0 13 -13v-629q0 -13 -13 -13h-157q-11 0 -15 9l-139 276q-14 29 -28 61.5t-27.5 64t-24.5 58.5h-3
q2 -29 2.5 -62t0.5 -66v-63v-265q0 -13 -13 -13h-112zM263 708q-6 0 -8 3.5t1 9.5l61 112q5 10 14 10h104q6 0 7.5 -4.5t-2.5 -10.5l-84 -113q-5 -7 -14 -7h-79z" />
    <glyph glyph-name="Ncaron" unicode="&#x147;" horiz-adv-x="674" 
d="M79 0q-13 0 -13 13v629q0 13 13 13h159q10 0 15 -9l143 -288q15 -31 30 -62.5t27.5 -60.5t20.5 -54h3q-2 27 -3.5 59.5t-2.5 65t-1 58.5v278q0 13 12 13h113q13 0 13 -13v-629q0 -13 -13 -13h-157q-11 0 -15 9l-139 276q-14 29 -28 61.5t-27.5 64t-24.5 58.5h-3
q2 -29 2.5 -62t0.5 -66v-63v-265q0 -13 -13 -13h-112zM329 712l-131 61q-8 3 -8 13v72q0 13 13 7l134 -52l135 52q13 6 13 -7v-72q0 -10 -8 -13l-131 -61q-9 -4 -17 0z" />
    <glyph glyph-name="uni0145" unicode="&#x145;" horiz-adv-x="674" 
d="M79 0q-13 0 -13 13v629q0 13 13 13h159q10 0 15 -9l143 -288q15 -31 30 -62.5t27.5 -60.5t20.5 -54h3q-2 27 -3.5 59.5t-2.5 65t-1 58.5v278q0 13 12 13h113q13 0 13 -13v-629q0 -13 -13 -13h-157q-11 0 -15 9l-139 276q-14 29 -28 61.5t-27.5 64t-24.5 58.5h-3
q2 -29 2.5 -62t0.5 -66v-63v-265q0 -13 -13 -13h-112zM298 -258q-10 0 -7 12l13 69q-15 6 -23 19t-8 33v18q0 28 16.5 42.5t46.5 14.5q33 0 49 -14.5t16 -42.5v-20q0 -14 -2 -26.5t-7 -26.5l-23 -69q-3 -9 -13 -9h-58z" />
    <glyph glyph-name="Eng" unicode="&#x14a;" horiz-adv-x="674" 
d="M461 -188l-67 77q-4 5 -3 11t8 10q22 16 37 39t23 51h-21q-11 0 -15 9l-139 276q-14 29 -28 61.5t-27.5 64t-24.5 58.5h-3q2 -29 2.5 -62t0.5 -66v-63v-265q0 -13 -13 -13h-112q-13 0 -13 13v629q0 13 13 13h159q10 0 15 -9l143 -288q15 -31 30 -62.5t27.5 -60.5
t20.5 -54h3q-2 27 -3.5 59.5t-2.5 65t-1 58.5v278q0 13 12 13h113q13 0 13 -13v-559q0 -66 -12.5 -117t-40 -88t-73.5 -66q-8 -4 -13 -4t-8 4z" />
    <glyph glyph-name="Ntilde" unicode="&#xd1;" horiz-adv-x="674" 
d="M79 0q-13 0 -13 13v629q0 13 13 13h159q10 0 15 -9l143 -288q15 -31 30 -62.5t27.5 -60.5t20.5 -54h3q-2 27 -3.5 59.5t-2.5 65t-1 58.5v278q0 13 12 13h113q13 0 13 -13v-629q0 -13 -13 -13h-157q-11 0 -15 9l-139 276q-14 29 -28 61.5t-27.5 64t-24.5 58.5h-3
q2 -29 2.5 -62t0.5 -66v-63v-265q0 -13 -13 -13h-112zM393 717q-22 0 -40 7t-35.5 14.5t-37.5 7.5q-21 0 -40.5 -7t-34.5 -14q-15 -8 -15 9v65q0 11 7 16q13 9 35 19t49 10q28 0 46.5 -7t34 -15t35.5 -8t39.5 6.5t33.5 14.5q15 8 15 -8v-65q0 -10 -7 -16
q-13 -10 -35.5 -19.5t-49.5 -9.5z" />
    <glyph glyph-name="O" unicode="O" horiz-adv-x="657" 
d="M328 -12q-135 0 -204.5 65t-69.5 189v171q0 125 69.5 189.5t204.5 64.5q136 0 205.5 -64.5t69.5 -189.5v-171q0 -124 -69.5 -189t-205.5 -65zM328 112q67 0 99.5 35.5t32.5 102.5v155q0 67 -32.5 102.5t-99.5 35.5q-65 0 -98 -35.5t-33 -102.5v-155q0 -67 33 -102.5
t98 -35.5z" />
    <glyph glyph-name="Oacute" unicode="&#xd3;" horiz-adv-x="657" 
d="M328 -12q-135 0 -204.5 65t-69.5 189v171q0 125 69.5 189.5t204.5 64.5q136 0 205.5 -64.5t69.5 -189.5v-171q0 -124 -69.5 -189t-205.5 -65zM328 112q67 0 99.5 35.5t32.5 102.5v155q0 67 -32.5 102.5t-99.5 35.5q-65 0 -98 -35.5t-33 -102.5v-155q0 -67 33 -102.5
t98 -35.5zM254 708q-6 0 -8 3.5t1 9.5l61 112q5 10 14 10h104q6 0 7.5 -4.5t-2.5 -10.5l-84 -113q-5 -7 -14 -7h-79z" />
    <glyph glyph-name="Ocircumflex" unicode="&#xd4;" horiz-adv-x="657" 
d="M328 -12q-135 0 -204.5 65t-69.5 189v171q0 125 69.5 189.5t204.5 64.5q136 0 205.5 -64.5t69.5 -189.5v-171q0 -124 -69.5 -189t-205.5 -65zM328 112q67 0 99.5 35.5t32.5 102.5v155q0 67 -32.5 102.5t-99.5 35.5q-65 0 -98 -35.5t-33 -102.5v-155q0 -67 33 -102.5
t98 -35.5zM194 712q-13 -6 -13 7v72q0 9 8 13l131 60q8 5 17 0l131 -60q8 -4 8 -13v-72q0 -13 -13 -7l-135 52z" />
    <glyph glyph-name="Odieresis" unicode="&#xd6;" horiz-adv-x="657" 
d="M328 -12q-135 0 -204.5 65t-69.5 189v171q0 125 69.5 189.5t204.5 64.5q136 0 205.5 -64.5t69.5 -189.5v-171q0 -124 -69.5 -189t-205.5 -65zM328 112q67 0 99.5 35.5t32.5 102.5v155q0 67 -32.5 102.5t-99.5 35.5q-65 0 -98 -35.5t-33 -102.5v-155q0 -67 33 -102.5
t98 -35.5zM228 708q-34 0 -52 17.5t-18 47.5v17q0 31 18 47.5t52 16.5q36 0 53.5 -16.5t17.5 -47.5v-17q0 -30 -17.5 -47.5t-53.5 -17.5zM427 708q-34 0 -52 17.5t-18 47.5v17q0 31 18 47.5t52 16.5q35 0 53 -16.5t18 -47.5v-17q0 -30 -18 -47.5t-53 -17.5z" />
    <glyph glyph-name="Ograve" unicode="&#xd2;" horiz-adv-x="657" 
d="M328 -12q-135 0 -204.5 65t-69.5 189v171q0 125 69.5 189.5t204.5 64.5q136 0 205.5 -64.5t69.5 -189.5v-171q0 -124 -69.5 -189t-205.5 -65zM328 112q67 0 99.5 35.5t32.5 102.5v155q0 67 -32.5 102.5t-99.5 35.5q-65 0 -98 -35.5t-33 -102.5v-155q0 -67 33 -102.5
t98 -35.5zM318 708q-9 0 -14 7l-84 113q-4 6 -2 10.5t8 4.5h103q11 0 15 -10l60 -112q3 -6 1.5 -9.5t-7.5 -3.5h-80z" />
    <glyph glyph-name="Ohungarumlaut" unicode="&#x150;" horiz-adv-x="657" 
d="M328 -12q-135 0 -204.5 65t-69.5 189v171q0 125 69.5 189.5t204.5 64.5q136 0 205.5 -64.5t69.5 -189.5v-171q0 -124 -69.5 -189t-205.5 -65zM328 112q67 0 99.5 35.5t32.5 102.5v155q0 67 -32.5 102.5t-99.5 35.5q-65 0 -98 -35.5t-33 -102.5v-155q0 -67 33 -102.5
t98 -35.5zM368 708q-14 0 -8 12l48 112q4 11 14 11h94q16 0 8 -15l-63 -112q-5 -8 -15 -8h-78zM194 708q-14 0 -8 12l47 112q4 11 15 11h94q15 0 7 -15l-62 -112q-5 -8 -16 -8h-77z" />
    <glyph glyph-name="Omacron" unicode="&#x14c;" horiz-adv-x="657" 
d="M328 -12q-135 0 -204.5 65t-69.5 189v171q0 125 69.5 189.5t204.5 64.5q136 0 205.5 -64.5t69.5 -189.5v-171q0 -124 -69.5 -189t-205.5 -65zM328 112q67 0 99.5 35.5t32.5 102.5v155q0 67 -32.5 102.5t-99.5 35.5q-65 0 -98 -35.5t-33 -102.5v-155q0 -67 33 -102.5
t98 -35.5zM209 716q-13 0 -13 13v74q0 13 13 13h239q13 0 13 -13v-74q0 -13 -13 -13h-239z" />
    <glyph glyph-name="Oslash" unicode="&#xd8;" horiz-adv-x="657" 
d="M63 -50q-7 0 -9.5 4.5t1.5 10.5l71 120l60 83l222 374l39 91l37 63q5 9 16 9h95q7 0 9 -4.5t-1 -10.5l-70 -119l-64 -91l-215 -364l-43 -96l-37 -62q-5 -8 -16 -8h-95zM328 -12q-135 0 -204.5 65t-69.5 189v171q0 125 69.5 189.5t204.5 64.5q136 0 205.5 -64.5
t69.5 -189.5v-171q0 -124 -69.5 -189t-205.5 -65zM328 112q67 0 99.5 35.5t32.5 102.5v155q0 67 -32.5 102.5t-99.5 35.5q-65 0 -98 -35.5t-33 -102.5v-155q0 -67 33 -102.5t98 -35.5z" />
    <glyph glyph-name="Otilde" unicode="&#xd5;" horiz-adv-x="657" 
d="M328 -12q-135 0 -204.5 65t-69.5 189v171q0 125 69.5 189.5t204.5 64.5q136 0 205.5 -64.5t69.5 -189.5v-171q0 -124 -69.5 -189t-205.5 -65zM328 112q67 0 99.5 35.5t32.5 102.5v155q0 67 -32.5 102.5t-99.5 35.5q-65 0 -98 -35.5t-33 -102.5v-155q0 -67 33 -102.5
t98 -35.5zM384 717q-22 0 -40 7t-35.5 14.5t-37.5 7.5q-21 0 -40.5 -7t-34.5 -14q-15 -8 -15 9v65q0 11 7 16q13 9 35 19t49 10q28 0 46.5 -7t34 -15t35.5 -8t39.5 6.5t33.5 14.5q15 8 15 -8v-65q0 -10 -7 -16q-13 -10 -35.5 -19.5t-49.5 -9.5z" />
    <glyph glyph-name="OE" unicode="&#x152;" horiz-adv-x="891" 
d="M327 -12q-137 0 -205 65t-68 189v171q0 124 68.5 189t204.5 65q23 0 51.5 -3.5t48.5 -8.5h398q12 0 12 -13v-99q0 -12 -12 -12h-270v-142h246q12 0 12 -13v-92q0 -12 -12 -12h-246v-148h270q12 0 12 -12v-99q0 -13 -12 -13h-397q-20 -5 -47.5 -8.5t-53.5 -3.5zM330 111
q25 0 46.5 2.5t36.5 6.5v413q-16 5 -38.5 8t-44.5 3q-67 0 -100 -35t-33 -102v-159q0 -66 33 -101.5t100 -35.5z" />
    <glyph glyph-name="P" unicode="P" horiz-adv-x="567" 
d="M79 0q-13 0 -13 13v629q0 13 13 13h198q136 0 198 -56t62 -164q0 -104 -64.5 -161t-194.5 -57h-69v-204q0 -13 -13 -13h-117zM209 338h67q59 0 88.5 22.5t29.5 73.5q0 53 -29 76t-89 23h-67v-195z" />
    <glyph glyph-name="Thorn" unicode="&#xde;" horiz-adv-x="567" 
d="M79 0q-13 0 -13 13v629q0 13 13 13h117q13 0 13 -13v-84h68q136 0 198 -56t62 -164q0 -105 -64.5 -161.5t-194.5 -56.5h-69v-107q0 -13 -13 -13h-117zM209 241h67q59 0 88.5 22.5t29.5 73.5q0 53 -29 76t-89 23h-67v-195z" />
    <glyph glyph-name="Q" unicode="Q" horiz-adv-x="657" 
d="M461 -184q-49 0 -83 24.5t-51.5 73.5t-14.5 126q0 13 13 13l96 -1q12 0 12 -13q-1 -57 11 -85.5t45 -28.5q10 0 19 2t17 4q7 2 10.5 -1t3.5 -10v-74q0 -12 -11 -16q-10 -5 -27.5 -9.5t-39.5 -4.5zM328 -12q-135 0 -204.5 65t-69.5 189v171q0 125 69.5 189.5t204.5 64.5
q136 0 205.5 -64.5t69.5 -189.5v-171q0 -124 -69.5 -189t-205.5 -65zM328 112q67 0 99.5 35.5t32.5 102.5v155q0 67 -32.5 102.5t-99.5 35.5q-65 0 -98 -35.5t-33 -102.5v-155q0 -67 33 -102.5t98 -35.5z" />
    <glyph glyph-name="R" unicode="R" horiz-adv-x="618" 
d="M79 0q-13 0 -13 13v629q0 13 13 13h220q135 0 196 -52t61 -151q0 -68 -30 -115t-92 -66v-1l158 -255q4 -6 1.5 -10.5t-10.5 -4.5h-132q-10 0 -16 9l-143 241h-83v-237q0 -13 -13 -13h-117zM209 362h88q60 0 88 21t28 67q0 45 -25.5 64.5t-86.5 19.5h-92v-172z" />
    <glyph glyph-name="Racute" unicode="&#x154;" horiz-adv-x="618" 
d="M79 0q-13 0 -13 13v629q0 13 13 13h220q135 0 196 -52t61 -151q0 -68 -30 -115t-92 -66v-1l158 -255q4 -6 1.5 -10.5t-10.5 -4.5h-132q-10 0 -16 9l-143 241h-83v-237q0 -13 -13 -13h-117zM209 362h88q60 0 88 21t28 67q0 45 -25.5 64.5t-86.5 19.5h-92v-172zM205 708
q-6 0 -8 3.5t1 9.5l61 112q5 10 14 10h104q6 0 7.5 -4.5t-2.5 -10.5l-84 -113q-5 -7 -14 -7h-79z" />
    <glyph glyph-name="Rcaron" unicode="&#x158;" horiz-adv-x="618" 
d="M79 0q-13 0 -13 13v629q0 13 13 13h220q135 0 196 -52t61 -151q0 -68 -30 -115t-92 -66v-1l158 -255q4 -6 1.5 -10.5t-10.5 -4.5h-132q-10 0 -16 9l-143 241h-83v-237q0 -13 -13 -13h-117zM209 362h88q60 0 88 21t28 67q0 45 -25.5 64.5t-86.5 19.5h-92v-172zM271 712
l-131 61q-8 3 -8 13v72q0 13 13 7l134 -52l135 52q13 6 13 -7v-72q0 -10 -8 -13l-131 -61q-9 -4 -17 0z" />
    <glyph glyph-name="uni0156" unicode="&#x156;" horiz-adv-x="618" 
d="M79 0q-13 0 -13 13v629q0 13 13 13h220q135 0 196 -52t61 -151q0 -68 -30 -115t-92 -66v-1l158 -255q4 -6 1.5 -10.5t-10.5 -4.5h-132q-10 0 -16 9l-143 241h-83v-237q0 -13 -13 -13h-117zM209 362h88q60 0 88 21t28 67q0 45 -25.5 64.5t-86.5 19.5h-92v-172zM275 -258
q-10 0 -7 12l13 69q-15 6 -23 19t-8 33v18q0 28 16.5 42.5t46.5 14.5q33 0 49 -14.5t16 -42.5v-20q0 -14 -2 -26.5t-7 -26.5l-23 -69q-3 -9 -13 -9h-58z" />
    <glyph glyph-name="S" unicode="S" horiz-adv-x="574" 
d="M280 -12q-132 0 -191.5 51t-50.5 149q1 17 14 17h114q13 0 13 -15q-1 -40 25 -60.5t81 -20.5q54 0 79.5 16t25.5 49q0 16 -6 28t-21 22t-41 20l-144 63q-50 21 -79 46.5t-41 58.5t-12 76q1 86 58.5 132.5t171.5 46.5q83 0 139.5 -22t83 -65t20.5 -108q-1 -17 -13 -17
h-115q-6 0 -9.5 4.5t-2.5 12.5q3 34 -24 55t-77 21q-44 0 -66.5 -15.5t-23.5 -45.5q0 -15 6.5 -27t22 -22.5t41.5 -21.5l143 -61q50 -22 79 -47t41 -58t12 -78q-1 -90 -61 -137t-192 -47z" />
    <glyph glyph-name="Sacute" unicode="&#x15a;" horiz-adv-x="574" 
d="M280 -12q-132 0 -191.5 51t-50.5 149q1 17 14 17h114q13 0 13 -15q-1 -40 25 -60.5t81 -20.5q54 0 79.5 16t25.5 49q0 16 -6 28t-21 22t-41 20l-144 63q-50 21 -79 46.5t-41 58.5t-12 76q1 86 58.5 132.5t171.5 46.5q83 0 139.5 -22t83 -65t20.5 -108q-1 -17 -13 -17
h-115q-6 0 -9.5 4.5t-2.5 12.5q3 34 -24 55t-77 21q-44 0 -66.5 -15.5t-23.5 -45.5q0 -15 6.5 -27t22 -22.5t41.5 -21.5l143 -61q50 -22 79 -47t41 -58t12 -78q-1 -90 -61 -137t-192 -47zM209 708q-6 0 -8 3.5t1 9.5l61 112q5 10 14 10h104q6 0 7.5 -4.5t-2.5 -10.5
l-84 -113q-5 -7 -14 -7h-79z" />
    <glyph glyph-name="Scaron" unicode="&#x160;" horiz-adv-x="574" 
d="M280 -12q-132 0 -191.5 51t-50.5 149q1 17 14 17h114q13 0 13 -15q-1 -40 25 -60.5t81 -20.5q54 0 79.5 16t25.5 49q0 16 -6 28t-21 22t-41 20l-144 63q-50 21 -79 46.5t-41 58.5t-12 76q1 86 58.5 132.5t171.5 46.5q83 0 139.5 -22t83 -65t20.5 -108q-1 -17 -13 -17
h-115q-6 0 -9.5 4.5t-2.5 12.5q3 34 -24 55t-77 21q-44 0 -66.5 -15.5t-23.5 -45.5q0 -15 6.5 -27t22 -22.5t41.5 -21.5l143 -61q50 -22 79 -47t41 -58t12 -78q-1 -90 -61 -137t-192 -47zM275 712l-131 61q-8 3 -8 13v72q0 13 13 7l134 -52l135 52q13 6 13 -7v-72
q0 -10 -8 -13l-131 -61q-9 -4 -17 0z" />
    <glyph glyph-name="Scedilla" unicode="&#x15e;" horiz-adv-x="574" 
d="M280 -12q-132 0 -191.5 51t-50.5 149q1 17 14 17h114q13 0 13 -15q-1 -40 25 -60.5t81 -20.5q54 0 79.5 16t25.5 49q0 16 -6 28t-21 22t-41 20l-144 63q-50 21 -79 46.5t-41 58.5t-12 76q1 86 58.5 132.5t171.5 46.5q83 0 139.5 -22t83 -65t20.5 -108q-1 -17 -13 -17
h-115q-6 0 -9.5 4.5t-2.5 12.5q3 34 -24 55t-77 21q-44 0 -66.5 -15.5t-23.5 -45.5q0 -15 6.5 -27t22 -22.5t41.5 -21.5l143 -61q50 -22 79 -47t41 -58t12 -78q-1 -90 -61 -137t-192 -47zM267 -197q-17 0 -30 1.5t-25 3.5q-10 1 -10 10v52q0 10 9 9q6 -1 15 -1.5t16 -0.5
q20 0 28.5 6.5t8.5 16.5v8q0 12 -7.5 17t-23.5 5h-22q-7 0 -7 6q0 5 0.5 11.5t1.5 10.5l25 80q3 8 12 8h72q10 0 6 -13l-22 -65h8q28 0 44 -17t16 -46v-17q0 -40 -27.5 -62.5t-87.5 -22.5z" />
    <glyph glyph-name="uni0218" unicode="&#x218;" horiz-adv-x="574" 
d="M280 -12q-132 0 -191.5 51t-50.5 149q1 17 14 17h114q13 0 13 -15q-1 -40 25 -60.5t81 -20.5q54 0 79.5 16t25.5 49q0 16 -6 28t-21 22t-41 20l-144 63q-50 21 -79 46.5t-41 58.5t-12 76q1 86 58.5 132.5t171.5 46.5q83 0 139.5 -22t83 -65t20.5 -108q-1 -17 -13 -17
h-115q-6 0 -9.5 4.5t-2.5 12.5q3 34 -24 55t-77 21q-44 0 -66.5 -15.5t-23.5 -45.5q0 -15 6.5 -27t22 -22.5t41.5 -21.5l143 -61q50 -22 79 -47t41 -58t12 -78q-1 -90 -61 -137t-192 -47zM253 -258q-10 0 -7 12l13 69q-15 6 -23 19t-8 33v18q0 28 16.5 42.5t46.5 14.5
q33 0 49 -14.5t16 -42.5v-20q0 -14 -2 -26.5t-7 -26.5l-23 -69q-3 -9 -13 -9h-58z" />
    <glyph glyph-name="uni1E9E" unicode="&#x1e9e;" horiz-adv-x="673" 
d="M430 -12q-74 0 -115 20t-56 57t-11 89q1 10 4.5 13.5t9.5 3.5l108 -2q13 0 12 -18q-1 -19 12 -29.5t38 -10.5q35 0 52 20.5t17 66.5q0 52 -25 75t-79 23h-70q-13 0 -13 14v43q0 8 4 16l85 160h-194v-516q0 -13 -13 -13h-117q-13 0 -13 13v629q0 13 13 13h507q9 0 12.5 -7
t-1.5 -18l-122 -228q85 -12 127 -63t42 -143q-1 -109 -56.5 -158.5t-157.5 -49.5z" />
    <glyph glyph-name="T" unicode="T" horiz-adv-x="551" 
d="M217 0q-12 0 -12 13v518h-169q-12 0 -12 12v99q0 13 12 13h479q12 0 12 -13v-99q0 -12 -12 -12h-168v-518q0 -13 -13 -13h-117z" />
    <glyph glyph-name="Tbar" unicode="&#x166;" horiz-adv-x="551" 
d="M120 271q-13 0 -13 12v78q0 13 13 13h312q13 0 13 -13v-78q0 -12 -13 -12h-84h-143h-85zM217 0q-12 0 -12 13v518h-169q-12 0 -12 12v99q0 13 12 13h479q12 0 12 -13v-99q0 -12 -12 -12h-168v-518q0 -13 -13 -13h-117z" />
    <glyph glyph-name="Tcaron" unicode="&#x164;" horiz-adv-x="551" 
d="M217 0q-12 0 -12 13v518h-169q-12 0 -12 12v99q0 13 12 13h479q12 0 12 -13v-99q0 -12 -12 -12h-168v-518q0 -13 -13 -13h-117zM269 712l-131 61q-8 3 -8 13v72q0 13 13 7l134 -52l135 52q13 6 13 -7v-72q0 -10 -8 -13l-131 -61q-9 -4 -17 0z" />
    <glyph glyph-name="uni0162" unicode="&#x162;" horiz-adv-x="551" 
d="M217 0q-12 0 -12 13v518h-169q-12 0 -12 12v99q0 13 12 13h479q12 0 12 -13v-99q0 -12 -12 -12h-168v-518q0 -13 -13 -13h-117zM251 -197q-17 0 -30 1.5t-25 3.5q-10 1 -10 10v52q0 10 9 9q6 -1 15 -1.5t16 -0.5q20 0 28.5 6.5t8.5 16.5v8q0 12 -7.5 17t-23.5 5h-22
q-7 0 -7 6q0 5 0.5 11.5t1.5 10.5l25 80q3 8 12 8h72q10 0 6 -13l-22 -65h8q28 0 44 -17t16 -46v-17q0 -40 -27.5 -62.5t-87.5 -22.5z" />
    <glyph glyph-name="uni021A" unicode="&#x21a;" horiz-adv-x="551" 
d="M217 0q-12 0 -12 13v518h-169q-12 0 -12 12v99q0 13 12 13h479q12 0 12 -13v-99q0 -12 -12 -12h-168v-518q0 -13 -13 -13h-117zM236 -258q-10 0 -7 12l13 69q-15 6 -23 19t-8 33v18q0 28 16.5 42.5t46.5 14.5q33 0 49 -14.5t16 -42.5v-20q0 -14 -2 -26.5t-7 -26.5
l-23 -69q-3 -9 -13 -9h-58z" />
    <glyph glyph-name="U" unicode="U" horiz-adv-x="656" 
d="M328 -12q-131 0 -199 62.5t-68 190.5v401q0 13 13 13h117q13 0 13 -13v-396q0 -64 30 -99.5t94 -35.5q65 0 94.5 35.5t29.5 99.5v396q0 13 13 13h117q13 0 13 -13v-402q0 -125 -68.5 -188.5t-198.5 -63.5z" />
    <glyph glyph-name="Uacute" unicode="&#xda;" horiz-adv-x="656" 
d="M328 -12q-131 0 -199 62.5t-68 190.5v401q0 13 13 13h117q13 0 13 -13v-396q0 -64 30 -99.5t94 -35.5q65 0 94.5 35.5t29.5 99.5v396q0 13 13 13h117q13 0 13 -13v-402q0 -125 -68.5 -188.5t-198.5 -63.5zM254 708q-6 0 -8 3.5t1 9.5l61 112q5 10 14 10h104q6 0 7.5 -4.5
t-2.5 -10.5l-84 -113q-5 -7 -14 -7h-79z" />
    <glyph glyph-name="Ucircumflex" unicode="&#xdb;" horiz-adv-x="656" 
d="M328 -12q-131 0 -199 62.5t-68 190.5v401q0 13 13 13h117q13 0 13 -13v-396q0 -64 30 -99.5t94 -35.5q65 0 94.5 35.5t29.5 99.5v396q0 13 13 13h117q13 0 13 -13v-402q0 -125 -68.5 -188.5t-198.5 -63.5zM194 712q-13 -6 -13 7v72q0 9 8 13l131 60q8 5 17 0l131 -60
q8 -4 8 -13v-72q0 -13 -13 -7l-135 52z" />
    <glyph glyph-name="Udieresis" unicode="&#xdc;" horiz-adv-x="656" 
d="M328 -12q-131 0 -199 62.5t-68 190.5v401q0 13 13 13h117q13 0 13 -13v-396q0 -64 30 -99.5t94 -35.5q65 0 94.5 35.5t29.5 99.5v396q0 13 13 13h117q13 0 13 -13v-402q0 -125 -68.5 -188.5t-198.5 -63.5zM229 708q-34 0 -52 17.5t-18 47.5v17q0 31 18 47.5t52 16.5
q36 0 53.5 -16.5t17.5 -47.5v-17q0 -30 -17.5 -47.5t-53.5 -17.5zM428 708q-34 0 -52 17.5t-18 47.5v17q0 31 18 47.5t52 16.5q35 0 53 -16.5t18 -47.5v-17q0 -30 -18 -47.5t-53 -17.5z" />
    <glyph glyph-name="Ugrave" unicode="&#xd9;" horiz-adv-x="656" 
d="M328 -12q-131 0 -199 62.5t-68 190.5v401q0 13 13 13h117q13 0 13 -13v-396q0 -64 30 -99.5t94 -35.5q65 0 94.5 35.5t29.5 99.5v396q0 13 13 13h117q13 0 13 -13v-402q0 -125 -68.5 -188.5t-198.5 -63.5zM318 708q-9 0 -14 7l-84 113q-4 6 -2 10.5t8 4.5h103
q11 0 15 -10l60 -112q3 -6 1.5 -9.5t-7.5 -3.5h-80z" />
    <glyph glyph-name="Uhungarumlaut" unicode="&#x170;" horiz-adv-x="656" 
d="M328 -12q-131 0 -199 62.5t-68 190.5v401q0 13 13 13h117q13 0 13 -13v-396q0 -64 30 -99.5t94 -35.5q65 0 94.5 35.5t29.5 99.5v396q0 13 13 13h117q13 0 13 -13v-402q0 -125 -68.5 -188.5t-198.5 -63.5zM369 708q-14 0 -8 12l48 112q4 11 14 11h94q16 0 8 -15l-63 -112
q-5 -8 -15 -8h-78zM195 708q-14 0 -8 12l47 112q4 11 15 11h94q15 0 7 -15l-62 -112q-5 -8 -16 -8h-77z" />
    <glyph glyph-name="Umacron" unicode="&#x16a;" horiz-adv-x="656" 
d="M328 -12q-131 0 -199 62.5t-68 190.5v401q0 13 13 13h117q13 0 13 -13v-396q0 -64 30 -99.5t94 -35.5q65 0 94.5 35.5t29.5 99.5v396q0 13 13 13h117q13 0 13 -13v-402q0 -125 -68.5 -188.5t-198.5 -63.5zM209 716q-13 0 -13 13v74q0 13 13 13h239q13 0 13 -13v-74
q0 -13 -13 -13h-239z" />
    <glyph glyph-name="Uogonek" unicode="&#x172;" horiz-adv-x="656" 
d="M328 -12q-131 0 -199 62.5t-68 190.5v401q0 13 13 13h117q13 0 13 -13v-396q0 -64 30 -99.5t94 -35.5q65 0 94.5 35.5t29.5 99.5v396q0 13 13 13h117q13 0 13 -13v-402q0 -125 -68.5 -188.5t-198.5 -63.5zM387 -197q-51 0 -80 23.5t-29 60.5v11q0 46 38.5 79.5
t109.5 51.5l16 -15l-2 -11q-27 -11 -41.5 -28.5t-14.5 -38.5v-6q0 -26 33 -26q8 0 15 0.5t15 1.5q10 2 10 -9v-75q0 -6 -1.5 -8t-8.5 -4q-14 -4 -30 -5.5t-30 -1.5z" />
    <glyph glyph-name="Uring" unicode="&#x16e;" horiz-adv-x="656" 
d="M328 -12q-131 0 -199 62.5t-68 190.5v401q0 13 13 13h117q13 0 13 -13v-396q0 -64 30 -99.5t94 -35.5q65 0 94.5 35.5t29.5 99.5v396q0 13 13 13h117q13 0 13 -13v-402q0 -125 -68.5 -188.5t-198.5 -63.5zM328 675q-59 0 -93 29t-34 84t33.5 83.5t93.5 28.5t94 -28.5
t34 -83.5t-33.5 -84t-94.5 -29zM328 748q21 0 30 11.5t9 29.5q0 19 -9 30.5t-30 11.5q-19 0 -28.5 -11.5t-9.5 -30.5q0 -18 9.5 -29.5t28.5 -11.5z" />
    <glyph glyph-name="V" unicode="V" horiz-adv-x="621" 
d="M232 0q-12 0 -15 10l-207 631q-4 14 11 14h127q12 0 15 -10l109 -376q10 -36 19 -72.5t17 -73.5h3q8 37 17.5 73.5t20.5 73.5l110 374q3 11 14 11h127q15 0 11 -14l-209 -631q-4 -10 -15 -10h-155z" />
    <glyph glyph-name="W" unicode="W" horiz-adv-x="888" 
d="M202 0q-11 0 -14 11l-173 630q-4 14 11 14h118q12 0 14 -11l84 -322q7 -29 13 -61.5t10.5 -63t8.5 -54.5h2q10 36 20 71t21 70l71 222l-38 120q-2 7 1.5 10.5t10.5 3.5h115q11 0 14 -11l92 -342q10 -36 18 -72t14 -72h2q4 25 9 58t11 67t12 61l80 315q3 11 14 11h119
q16 0 12 -14l-171 -630q-2 -11 -13 -11h-137q-12 0 -14 11l-53 187q-11 38 -20 73.5t-18 69.5h-2q-9 -33 -18.5 -68t-21.5 -74l-58 -189q-4 -10 -15 -10h-131z" />
    <glyph glyph-name="Wacute" unicode="&#x1e82;" horiz-adv-x="888" 
d="M202 0q-11 0 -14 11l-173 630q-4 14 11 14h118q12 0 14 -11l84 -322q7 -29 13 -61.5t10.5 -63t8.5 -54.5h2q10 36 20 71t21 70l71 222l-38 120q-2 7 1.5 10.5t10.5 3.5h115q11 0 14 -11l92 -342q10 -36 18 -72t14 -72h2q4 25 9 58t11 67t12 61l80 315q3 11 14 11h119
q16 0 12 -14l-171 -630q-2 -11 -13 -11h-137q-12 0 -14 11l-53 187q-11 38 -20 73.5t-18 69.5h-2q-9 -33 -18.5 -68t-21.5 -74l-58 -189q-4 -10 -15 -10h-131zM370 708q-6 0 -8 3.5t1 9.5l61 112q5 10 14 10h104q6 0 7.5 -4.5t-2.5 -10.5l-84 -113q-5 -7 -14 -7h-79z" />
    <glyph glyph-name="Wcircumflex" unicode="&#x174;" horiz-adv-x="888" 
d="M202 0q-11 0 -14 11l-173 630q-4 14 11 14h118q12 0 14 -11l84 -322q7 -29 13 -61.5t10.5 -63t8.5 -54.5h2q10 36 20 71t21 70l71 222l-38 120q-2 7 1.5 10.5t10.5 3.5h115q11 0 14 -11l92 -342q10 -36 18 -72t14 -72h2q4 25 9 58t11 67t12 61l80 315q3 11 14 11h119
q16 0 12 -14l-171 -630q-2 -11 -13 -11h-137q-12 0 -14 11l-53 187q-11 38 -20 73.5t-18 69.5h-2q-9 -33 -18.5 -68t-21.5 -74l-58 -189q-4 -10 -15 -10h-131zM310 712q-13 -6 -13 7v72q0 9 8 13l131 60q8 5 17 0l131 -60q8 -4 8 -13v-72q0 -13 -13 -7l-135 52z" />
    <glyph glyph-name="Wdieresis" unicode="&#x1e84;" horiz-adv-x="888" 
d="M202 0q-11 0 -14 11l-173 630q-4 14 11 14h118q12 0 14 -11l84 -322q7 -29 13 -61.5t10.5 -63t8.5 -54.5h2q10 36 20 71t21 70l71 222l-38 120q-2 7 1.5 10.5t10.5 3.5h115q11 0 14 -11l92 -342q10 -36 18 -72t14 -72h2q4 25 9 58t11 67t12 61l80 315q3 11 14 11h119
q16 0 12 -14l-171 -630q-2 -11 -13 -11h-137q-12 0 -14 11l-53 187q-11 38 -20 73.5t-18 69.5h-2q-9 -33 -18.5 -68t-21.5 -74l-58 -189q-4 -10 -15 -10h-131zM344 708q-34 0 -52 17.5t-18 47.5v17q0 31 18 47.5t52 16.5q36 0 53.5 -16.5t17.5 -47.5v-17q0 -30 -17.5 -47.5
t-53.5 -17.5zM543 708q-34 0 -52 17.5t-18 47.5v17q0 31 18 47.5t52 16.5q35 0 53 -16.5t18 -47.5v-17q0 -30 -18 -47.5t-53 -17.5z" />
    <glyph glyph-name="Wgrave" unicode="&#x1e80;" horiz-adv-x="888" 
d="M202 0q-11 0 -14 11l-173 630q-4 14 11 14h118q12 0 14 -11l84 -322q7 -29 13 -61.5t10.5 -63t8.5 -54.5h2q10 36 20 71t21 70l71 222l-38 120q-2 7 1.5 10.5t10.5 3.5h115q11 0 14 -11l92 -342q10 -36 18 -72t14 -72h2q4 25 9 58t11 67t12 61l80 315q3 11 14 11h119
q16 0 12 -14l-171 -630q-2 -11 -13 -11h-137q-12 0 -14 11l-53 187q-11 38 -20 73.5t-18 69.5h-2q-9 -33 -18.5 -68t-21.5 -74l-58 -189q-4 -10 -15 -10h-131zM434 708q-9 0 -14 7l-84 113q-4 6 -2 10.5t8 4.5h103q11 0 15 -10l60 -112q3 -6 1.5 -9.5t-7.5 -3.5h-80z" />
    <glyph glyph-name="X" unicode="X" horiz-adv-x="594" 
d="M13 0q-8 0 -10 4.5t2 10.5l209 321l-196 304q-4 6 -2 10.5t9 4.5h139q10 0 14 -8l79 -128q11 -18 21.5 -39t19.5 -40h3q9 20 21.5 43t22.5 40l75 124q5 8 15 8h135q7 0 9.5 -4.5t-2.5 -10.5l-195 -305l207 -320q4 -6 1.5 -10.5t-9.5 -4.5h-139q-10 0 -16 8l-83 136
q-10 17 -22.5 40.5t-23.5 45.5h-2q-11 -21 -23 -44t-22 -39l-85 -138q-5 -9 -16 -9h-136z" />
    <glyph glyph-name="Y" unicode="Y" horiz-adv-x="581" 
d="M232 0q-13 0 -13 13v213l-213 414q-3 6 -0.5 10.5t9.5 4.5h132q11 0 15 -9l76 -165q14 -32 27.5 -64t25.5 -63h1q13 32 26 63t28 64l75 165q4 9 15 9h130q7 0 9.5 -4.5t-0.5 -10.5l-213 -414v-213q0 -13 -13 -13h-117z" />
    <glyph glyph-name="Yacute" unicode="&#xdd;" horiz-adv-x="581" 
d="M232 0q-13 0 -13 13v213l-213 414q-3 6 -0.5 10.5t9.5 4.5h132q11 0 15 -9l76 -165q14 -32 27.5 -64t25.5 -63h1q13 32 26 63t28 64l75 165q4 9 15 9h130q7 0 9.5 -4.5t-0.5 -10.5l-213 -414v-213q0 -13 -13 -13h-117zM216 708q-6 0 -8 3.5t1 9.5l61 112q5 10 14 10h104
q6 0 7.5 -4.5t-2.5 -10.5l-84 -113q-5 -7 -14 -7h-79z" />
    <glyph glyph-name="Ycircumflex" unicode="&#x176;" horiz-adv-x="581" 
d="M232 0q-13 0 -13 13v213l-213 414q-3 6 -0.5 10.5t9.5 4.5h132q11 0 15 -9l76 -165q14 -32 27.5 -64t25.5 -63h1q13 32 26 63t28 64l75 165q4 9 15 9h130q7 0 9.5 -4.5t-0.5 -10.5l-213 -414v-213q0 -13 -13 -13h-117zM156 712q-13 -6 -13 7v72q0 9 8 13l131 60q8 5 17 0
l131 -60q8 -4 8 -13v-72q0 -13 -13 -7l-135 52z" />
    <glyph glyph-name="Ydieresis" unicode="&#x178;" horiz-adv-x="581" 
d="M232 0q-13 0 -13 13v213l-213 414q-3 6 -0.5 10.5t9.5 4.5h132q11 0 15 -9l76 -165q14 -32 27.5 -64t25.5 -63h1q13 32 26 63t28 64l75 165q4 9 15 9h130q7 0 9.5 -4.5t-0.5 -10.5l-213 -414v-213q0 -13 -13 -13h-117zM191 708q-34 0 -52 17.5t-18 47.5v17q0 31 18 47.5
t52 16.5q36 0 53.5 -16.5t17.5 -47.5v-17q0 -30 -17.5 -47.5t-53.5 -17.5zM390 708q-34 0 -52 17.5t-18 47.5v17q0 31 18 47.5t52 16.5q35 0 53 -16.5t18 -47.5v-17q0 -30 -18 -47.5t-53 -17.5z" />
    <glyph glyph-name="Ygrave" unicode="&#x1ef2;" horiz-adv-x="581" 
d="M232 0q-13 0 -13 13v213l-213 414q-3 6 -0.5 10.5t9.5 4.5h132q11 0 15 -9l76 -165q14 -32 27.5 -64t25.5 -63h1q13 32 26 63t28 64l75 165q4 9 15 9h130q7 0 9.5 -4.5t-0.5 -10.5l-213 -414v-213q0 -13 -13 -13h-117zM280 708q-9 0 -14 7l-84 113q-4 6 -2 10.5t8 4.5
h103q11 0 15 -10l60 -112q3 -6 1.5 -9.5t-7.5 -3.5h-80z" />
    <glyph glyph-name="Z" unicode="Z" horiz-adv-x="564" 
d="M27 0q-13 0 -13 12v7q0 9 5 16l250 402q15 24 29.5 46.5t29.5 46.5v2q-26 -1 -54 -1h-55h-162q-13 0 -13 12v99q0 13 13 13h477q12 0 12 -12v-7q0 -7 -4 -16l-248 -391q-16 -26 -32.5 -52t-34.5 -52v-2q29 1 58.5 1h59.5h165q13 0 13 -12v-99q0 -13 -13 -13h-483z" />
    <glyph glyph-name="Zacute" unicode="&#x179;" horiz-adv-x="564" 
d="M27 0q-13 0 -13 12v7q0 9 5 16l250 402q15 24 29.5 46.5t29.5 46.5v2q-26 -1 -54 -1h-55h-162q-13 0 -13 12v99q0 13 13 13h477q12 0 12 -12v-7q0 -7 -4 -16l-248 -391q-16 -26 -32.5 -52t-34.5 -52v-2q29 1 58.5 1h59.5h165q13 0 13 -12v-99q0 -13 -13 -13h-483z
M213 708q-6 0 -8 3.5t1 9.5l61 112q5 10 14 10h104q6 0 7.5 -4.5t-2.5 -10.5l-84 -113q-5 -7 -14 -7h-79z" />
    <glyph glyph-name="Zcaron" unicode="&#x17d;" horiz-adv-x="564" 
d="M27 0q-13 0 -13 12v7q0 9 5 16l250 402q15 24 29.5 46.5t29.5 46.5v2q-26 -1 -54 -1h-55h-162q-13 0 -13 12v99q0 13 13 13h477q12 0 12 -12v-7q0 -7 -4 -16l-248 -391q-16 -26 -32.5 -52t-34.5 -52v-2q29 1 58.5 1h59.5h165q13 0 13 -12v-99q0 -13 -13 -13h-483z
M279 712l-131 61q-8 3 -8 13v72q0 13 13 7l134 -52l135 52q13 6 13 -7v-72q0 -10 -8 -13l-131 -61q-9 -4 -17 0z" />
    <glyph glyph-name="Zdotaccent" unicode="&#x17b;" horiz-adv-x="564" 
d="M27 0q-13 0 -13 12v7q0 9 5 16l250 402q15 24 29.5 46.5t29.5 46.5v2q-26 -1 -54 -1h-55h-162q-13 0 -13 12v99q0 13 13 13h477q12 0 12 -12v-7q0 -7 -4 -16l-248 -391q-16 -26 -32.5 -52t-34.5 -52v-2q29 1 58.5 1h59.5h165q13 0 13 -12v-99q0 -13 -13 -13h-483z
M287 720q-37 0 -57 19t-20 51v18q0 32 20 50.5t57 18.5q38 0 57.5 -18.5t19.5 -50.5v-18q0 -32 -19.5 -51t-57.5 -19z" />
    <glyph glyph-name="a" unicode="a" horiz-adv-x="511" 
d="M350 0q-6 0 -9 3.5t-5 9.5q-2 11 -5 33.5t-5 44.5l-10 42v201q0 38 -14.5 53.5t-51.5 15.5q-68 0 -65 -51q1 -13 -13 -13h-105q-12 0 -14 16q-6 73 46.5 112.5t155.5 39.5q105 0 152.5 -42.5t47.5 -134.5v-203q0 -32 1.5 -59.5t4.5 -53.5q2 -14 -13 -14h-98zM158 -12
q-60 0 -93 36.5t-33 103.5q0 52 19.5 84.5t65 51t121.5 24.5l93 9l-1 -76l-74 -7q-51 -5 -70.5 -20.5t-19.5 -49.5q0 -27 11 -39t33 -12q28 0 56 17t68 60l6 -83q-28 -29 -55.5 -51.5t-58 -35t-68.5 -12.5z" />
    <glyph glyph-name="aacute" unicode="&#xe1;" horiz-adv-x="511" 
d="M350 0q-6 0 -9 3.5t-5 9.5q-2 11 -5 33.5t-5 44.5l-10 42v201q0 38 -14.5 53.5t-51.5 15.5q-68 0 -65 -51q1 -13 -13 -13h-105q-12 0 -14 16q-6 73 46.5 112.5t155.5 39.5q105 0 152.5 -42.5t47.5 -134.5v-203q0 -32 1.5 -59.5t4.5 -53.5q2 -14 -13 -14h-98zM158 -12
q-60 0 -93 36.5t-33 103.5q0 52 19.5 84.5t65 51t121.5 24.5l93 9l-1 -76l-74 -7q-51 -5 -70.5 -20.5t-19.5 -49.5q0 -27 11 -39t33 -12q28 0 56 17t68 60l6 -83q-28 -29 -55.5 -51.5t-58 -35t-68.5 -12.5zM179 557q-14 0 -7 14l69 127q5 10 15 10h103q7 0 8.5 -5t-2.5 -10
l-94 -128q-5 -8 -15 -8h-77z" />
    <glyph glyph-name="abreve" unicode="&#x103;" horiz-adv-x="511" 
d="M350 0q-6 0 -9 3.5t-5 9.5q-2 11 -5 33.5t-5 44.5l-10 42v201q0 38 -14.5 53.5t-51.5 15.5q-68 0 -65 -51q1 -13 -13 -13h-105q-12 0 -14 16q-6 73 46.5 112.5t155.5 39.5q105 0 152.5 -42.5t47.5 -134.5v-203q0 -32 1.5 -59.5t4.5 -53.5q2 -14 -13 -14h-98zM158 -12
q-60 0 -93 36.5t-33 103.5q0 52 19.5 84.5t65 51t121.5 24.5l93 9l-1 -76l-74 -7q-51 -5 -70.5 -20.5t-19.5 -49.5q0 -27 11 -39t33 -12q28 0 56 17t68 60l6 -83q-28 -29 -55.5 -51.5t-58 -35t-68.5 -12.5zM253 555q-33 0 -59 9.5t-44 22.5t-28 23q-4 4 -4 13v74q0 8 4 10
t10 -3q19 -17 50 -34t71 -17t71.5 16.5t48.5 34.5q6 6 10.5 3.5t4.5 -10.5v-74q0 -4 -1 -8.5t-5 -7.5q-11 -9 -28.5 -21t-42.5 -21.5t-58 -9.5z" />
    <glyph glyph-name="acircumflex" unicode="&#xe2;" horiz-adv-x="511" 
d="M350 0q-6 0 -9 3.5t-5 9.5q-2 11 -5 33.5t-5 44.5l-10 42v201q0 38 -14.5 53.5t-51.5 15.5q-68 0 -65 -51q1 -13 -13 -13h-105q-12 0 -14 16q-6 73 46.5 112.5t155.5 39.5q105 0 152.5 -42.5t47.5 -134.5v-203q0 -32 1.5 -59.5t4.5 -53.5q2 -14 -13 -14h-98zM158 -12
q-60 0 -93 36.5t-33 103.5q0 52 19.5 84.5t65 51t121.5 24.5l93 9l-1 -76l-74 -7q-51 -5 -70.5 -20.5t-19.5 -49.5q0 -27 11 -39t33 -12q28 0 56 17t68 60l6 -83q-28 -29 -55.5 -51.5t-58 -35t-68.5 -12.5zM129 548q-14 -7 -14 7v71q0 10 7 14l122 72q8 5 17 0l121 -72
q8 -4 8 -14v-71q0 -14 -15 -7l-123 62z" />
    <glyph glyph-name="adieresis" unicode="&#xe4;" horiz-adv-x="511" 
d="M350 0q-6 0 -9 3.5t-5 9.5q-2 11 -5 33.5t-5 44.5l-10 42v201q0 38 -14.5 53.5t-51.5 15.5q-68 0 -65 -51q1 -13 -13 -13h-105q-12 0 -14 16q-6 73 46.5 112.5t155.5 39.5q105 0 152.5 -42.5t47.5 -134.5v-203q0 -32 1.5 -59.5t4.5 -53.5q2 -14 -13 -14h-98zM158 -12
q-60 0 -93 36.5t-33 103.5q0 52 19.5 84.5t65 51t121.5 24.5l93 9l-1 -76l-74 -7q-51 -5 -70.5 -20.5t-19.5 -49.5q0 -27 11 -39t33 -12q28 0 56 17t68 60l6 -83q-28 -29 -55.5 -51.5t-58 -35t-68.5 -12.5zM152 560q-34 0 -52 17.5t-18 46.5v17q0 31 18 48t52 17
q36 0 53.5 -17t17.5 -48v-17q0 -29 -17.5 -46.5t-53.5 -17.5zM351 560q-34 0 -52 17.5t-18 46.5v17q0 31 18 48t52 17q36 0 53.5 -17t17.5 -48v-17q0 -29 -17.5 -46.5t-53.5 -17.5z" />
    <glyph glyph-name="agrave" unicode="&#xe0;" horiz-adv-x="511" 
d="M350 0q-6 0 -9 3.5t-5 9.5q-2 11 -5 33.5t-5 44.5l-10 42v201q0 38 -14.5 53.5t-51.5 15.5q-68 0 -65 -51q1 -13 -13 -13h-105q-12 0 -14 16q-6 73 46.5 112.5t155.5 39.5q105 0 152.5 -42.5t47.5 -134.5v-203q0 -32 1.5 -59.5t4.5 -53.5q2 -14 -13 -14h-98zM158 -12
q-60 0 -93 36.5t-33 103.5q0 52 19.5 84.5t65 51t121.5 24.5l93 9l-1 -76l-74 -7q-51 -5 -70.5 -20.5t-19.5 -49.5q0 -27 11 -39t33 -12q28 0 56 17t68 60l6 -83q-28 -29 -55.5 -51.5t-58 -35t-68.5 -12.5zM247 557q-9 0 -15 8l-93 128q-4 5 -2.5 10t7.5 5h103q11 0 16 -10
l69 -127q7 -14 -7 -14h-78z" />
    <glyph glyph-name="amacron" unicode="&#x101;" horiz-adv-x="511" 
d="M350 0q-6 0 -9 3.5t-5 9.5q-2 11 -5 33.5t-5 44.5l-10 42v201q0 38 -14.5 53.5t-51.5 15.5q-68 0 -65 -51q1 -13 -13 -13h-105q-12 0 -14 16q-6 73 46.5 112.5t155.5 39.5q105 0 152.5 -42.5t47.5 -134.5v-203q0 -32 1.5 -59.5t4.5 -53.5q2 -14 -13 -14h-98zM158 -12
q-60 0 -93 36.5t-33 103.5q0 52 19.5 84.5t65 51t121.5 24.5l93 9l-1 -76l-74 -7q-51 -5 -70.5 -20.5t-19.5 -49.5q0 -27 11 -39t33 -12q28 0 56 17t68 60l6 -83q-28 -29 -55.5 -51.5t-58 -35t-68.5 -12.5zM143 570q-13 0 -13 13v75q0 12 13 12h219q13 0 13 -12v-75
q0 -13 -13 -13h-219z" />
    <glyph glyph-name="aogonek" unicode="&#x105;" horiz-adv-x="511" 
d="M350 0q-6 0 -9 3.5t-5 9.5q-2 11 -5 33.5t-5 44.5l-10 42v201q0 38 -14.5 53.5t-51.5 15.5q-68 0 -65 -51q1 -13 -13 -13h-105q-12 0 -14 16q-6 73 46.5 112.5t155.5 39.5q105 0 152.5 -42.5t47.5 -134.5v-203q0 -32 1.5 -59.5t4.5 -53.5q2 -14 -13 -14h-98zM158 -12
q-60 0 -93 36.5t-33 103.5q0 52 19.5 84.5t65 51t121.5 24.5l93 9l-1 -76l-74 -7q-51 -5 -70.5 -20.5t-19.5 -49.5q0 -27 11 -39t33 -12q28 0 56 17t68 60l6 -83q-28 -29 -55.5 -51.5t-58 -35t-68.5 -12.5zM395 -197q-51 0 -80 23.5t-29 60.5v11q0 46 38.5 79.5t109.5 51.5
l16 -15l-2 -11q-27 -11 -41.5 -28.5t-14.5 -38.5v-6q0 -26 33 -26q8 0 15 0.5t15 1.5q10 2 10 -9v-75q0 -6 -1.5 -8t-8.5 -4q-14 -4 -30 -5.5t-30 -1.5z" />
    <glyph glyph-name="aring" unicode="&#xe5;" horiz-adv-x="511" 
d="M350 0q-6 0 -9 3.5t-5 9.5q-2 11 -5 33.5t-5 44.5l-10 42v201q0 38 -14.5 53.5t-51.5 15.5q-68 0 -65 -51q1 -13 -13 -13h-105q-12 0 -14 16q-6 73 46.5 112.5t155.5 39.5q105 0 152.5 -42.5t47.5 -134.5v-203q0 -32 1.5 -59.5t4.5 -53.5q2 -14 -13 -14h-98zM158 -12
q-60 0 -93 36.5t-33 103.5q0 52 19.5 84.5t65 51t121.5 24.5l93 9l-1 -76l-74 -7q-51 -5 -70.5 -20.5t-19.5 -49.5q0 -27 11 -39t33 -12q28 0 56 17t68 60l6 -83q-28 -29 -55.5 -51.5t-58 -35t-68.5 -12.5zM252 554q-59 0 -93 29t-34 84t33.5 83.5t93.5 28.5t94 -28.5
t34 -83.5t-33.5 -84t-94.5 -29zM252 627q21 0 30 11t9 31q0 19 -9 30t-30 11q-19 0 -28.5 -11t-9.5 -30q0 -20 9.5 -31t28.5 -11z" />
    <glyph glyph-name="atilde" unicode="&#xe3;" horiz-adv-x="511" 
d="M350 0q-6 0 -9 3.5t-5 9.5q-2 11 -5 33.5t-5 44.5l-10 42v201q0 38 -14.5 53.5t-51.5 15.5q-68 0 -65 -51q1 -13 -13 -13h-105q-12 0 -14 16q-6 73 46.5 112.5t155.5 39.5q105 0 152.5 -42.5t47.5 -134.5v-203q0 -32 1.5 -59.5t4.5 -53.5q2 -14 -13 -14h-98zM158 -12
q-60 0 -93 36.5t-33 103.5q0 52 19.5 84.5t65 51t121.5 24.5l93 9l-1 -76l-74 -7q-51 -5 -70.5 -20.5t-19.5 -49.5q0 -27 11 -39t33 -12q28 0 56 17t68 60l6 -83q-28 -29 -55.5 -51.5t-58 -35t-68.5 -12.5zM305 563q-21 0 -38 7.5t-33.5 14.5t-35.5 7q-17 0 -35 -7t-33 -14
q-15 -6 -15 9v65q0 10 7 16q12 9 32.5 19t45.5 10q26 0 43 -7t32 -14.5t32 -7.5q18 0 36 7t32 13q15 8 15 -8v-65q0 -10 -7 -16q-12 -9 -32.5 -19t-45.5 -10z" />
    <glyph glyph-name="ae" unicode="&#xe6;" horiz-adv-x="797" 
d="M157 -12q-59 0 -92 36.5t-33 103.5q0 53 20 86.5t65.5 51.5t120.5 25l78 7v36q0 38 -14.5 53.5t-51.5 15.5q-34 0 -50 -12.5t-15 -38.5q1 -13 -13 -13h-105q-12 0 -14 16q-3 49 18.5 82.5t66.5 51.5t112 18q53 0 89 -15.5t57 -47.5q24 30 65.5 46.5t88.5 16.5
q98 0 150.5 -52t52.5 -149v-74q0 -13 -13 -13h-289v-34q0 -47 19.5 -69t62.5 -22q35 0 55 12t20 32q0 15 13 15h109q13 0 13 -19q0 -72 -53 -109t-157 -37q-74 0 -122 23t-70 69q-46 -48 -90 -70t-94 -22zM213 93q22 0 47 14.5t58 46.5q-1 10 -1.5 21.5t-0.5 23.5v20l-60 -6
q-51 -5 -70.5 -20t-19.5 -49q0 -27 11 -39t36 -12zM451 302h166v2q0 49 -20 73t-60 24q-44 0 -65 -23.5t-21 -74.5v-1z" />
    <glyph glyph-name="b" unicode="b" horiz-adv-x="542" 
d="M279 -12q-41 0 -76 4.5t-70.5 10t-76.5 8.5v659q0 13 13 13h113q13 0 13 -13v-560q18 -3 36.5 -5.5t35.5 -2.5q46 0 68 25.5t22 75.5v103q0 43 -15 62t-46 19q-25 0 -52.5 -14.5t-65.5 -46.5l3 104q42 39 84 58t86 19q73 0 109 -42.5t36 -130.5v-143q0 -103 -53 -153
t-164 -50z" />
    <glyph glyph-name="c" unicode="c" horiz-adv-x="532" 
d="M273 -12q-110 0 -169.5 53.5t-59.5 153.5v105q0 100 59.5 153.5t169.5 53.5q72 0 121 -24t73.5 -63.5t20.5 -89.5q-1 -19 -13 -19h-106q-12 0 -12 15q0 31 -22 47t-60 16q-46 0 -69 -24t-23 -78v-79q0 -54 23 -77.5t68 -23.5q40 0 61 17t21 45q0 15 12 15h106
q12 0 13 -13q4 -83 -50.5 -133t-163.5 -50z" />
    <glyph glyph-name="cacute" unicode="&#x107;" horiz-adv-x="532" 
d="M273 -12q-110 0 -169.5 53.5t-59.5 153.5v105q0 100 59.5 153.5t169.5 53.5q72 0 121 -24t73.5 -63.5t20.5 -89.5q-1 -19 -13 -19h-106q-12 0 -12 15q0 31 -22 47t-60 16q-46 0 -69 -24t-23 -78v-79q0 -54 23 -77.5t68 -23.5q40 0 61 17t21 45q0 15 12 15h106
q12 0 13 -13q4 -83 -50.5 -133t-163.5 -50zM193 557q-14 0 -7 14l69 127q5 10 15 10h103q7 0 8.5 -5t-2.5 -10l-94 -128q-5 -8 -15 -8h-77z" />
    <glyph glyph-name="ccaron" unicode="&#x10d;" horiz-adv-x="532" 
d="M273 -12q-110 0 -169.5 53.5t-59.5 153.5v105q0 100 59.5 153.5t169.5 53.5q72 0 121 -24t73.5 -63.5t20.5 -89.5q-1 -19 -13 -19h-106q-12 0 -12 15q0 31 -22 47t-60 16q-46 0 -69 -24t-23 -78v-79q0 -54 23 -77.5t68 -23.5q40 0 61 17t21 45q0 15 12 15h106
q12 0 13 -13q4 -83 -50.5 -133t-163.5 -50zM259 549l-121 71q-8 4 -8 14v71q0 15 14 7l123 -62l123 62q15 8 15 -7v-71q0 -10 -8 -14l-121 -71q-9 -6 -17 0z" />
    <glyph glyph-name="ccedilla" unicode="&#xe7;" horiz-adv-x="532" 
d="M273 -12q-110 0 -169.5 53.5t-59.5 153.5v105q0 100 59.5 153.5t169.5 53.5q72 0 121 -24t73.5 -63.5t20.5 -89.5q-1 -19 -13 -19h-106q-12 0 -12 15q0 31 -22 47t-60 16q-46 0 -69 -24t-23 -78v-79q0 -54 23 -77.5t68 -23.5q40 0 61 17t21 45q0 15 12 15h106
q12 0 13 -13q4 -83 -50.5 -133t-163.5 -50zM259 -197q-17 0 -30 1.5t-25 3.5q-10 1 -10 10v52q0 10 9 9q6 -1 15 -1.5t16 -0.5q20 0 28.5 6.5t8.5 16.5v8q0 12 -7.5 17t-23.5 5h-22q-7 0 -7 6q0 5 0.5 11.5t1.5 10.5l25 80q3 8 12 8h72q10 0 6 -13l-22 -65h8q28 0 44 -17
t16 -46v-17q0 -40 -27.5 -62.5t-87.5 -22.5z" />
    <glyph glyph-name="cdotaccent" unicode="&#x10b;" horiz-adv-x="532" 
d="M273 -12q-110 0 -169.5 53.5t-59.5 153.5v105q0 100 59.5 153.5t169.5 53.5q72 0 121 -24t73.5 -63.5t20.5 -89.5q-1 -19 -13 -19h-106q-12 0 -12 15q0 31 -22 47t-60 16q-46 0 -69 -24t-23 -78v-79q0 -54 23 -77.5t68 -23.5q40 0 61 17t21 45q0 15 12 15h106
q12 0 13 -13q4 -83 -50.5 -133t-163.5 -50zM267 559q-37 0 -57 19t-20 50v18q0 33 20 51.5t57 18.5q38 0 57.5 -18.5t19.5 -51.5v-18q0 -31 -19.5 -50t-57.5 -19z" />
    <glyph glyph-name="d" unicode="d" horiz-adv-x="548" 
d="M189 -12q-70 0 -106.5 42t-36.5 130v144q0 105 47 154t130 49q34 0 75 -9t67 -25l4 -108q-26 14 -54 21t-50 7q-41 0 -60.5 -26t-19.5 -75v-108q0 -38 14.5 -57t46.5 -19q21 0 41 8.5t41 24.5t45 40l7 -92q-26 -28 -54.5 -51t-62 -36.5t-74.5 -13.5zM387 0q-12 0 -14 12
q-3 15 -6 36.5t-3 39.5l-12 57v525q0 13 13 13h114q12 0 12 -13v-547q0 -18 1 -37.5t2.5 -37.5t2.5 -33q3 -15 -12 -15h-98z" />
    <glyph glyph-name="eth" unicode="&#xf0;" horiz-adv-x="536" 
d="M261 -12q-109 0 -163 52.5t-54 152.5v71q0 103 42.5 150t120.5 47q41 0 83.5 -15t73.5 -45l1 -114q-23 30 -53.5 45t-58.5 15q-34 0 -52 -24t-18 -72v-61q0 -44 20.5 -64t62.5 -20q43 0 65 26t22 81v106q6 60 -1 106t-30 79.5t-63 57t-98 38.5q-10 2 -12.5 7t2.5 12
l48 67q5 7 10 8t12 -1q91 -21 151 -68t90 -115.5t30 -156.5v-152q0 -102 -61 -157.5t-170 -55.5zM194 496q-7 -4 -13 7l-19 36q-4 7 6 12l265 140q7 4 13 -8l18 -36q4 -7 -6 -12z" />
    <glyph glyph-name="dcaron" unicode="&#x10f;" horiz-adv-x="548" 
d="M189 -12q-70 0 -106.5 42t-36.5 130v144q0 105 47 154t130 49q34 0 75 -9t67 -25l4 -108q-26 14 -54 21t-50 7q-41 0 -60.5 -26t-19.5 -75v-108q0 -38 14.5 -57t46.5 -19q21 0 41 8.5t41 24.5t45 40l7 -92q-26 -28 -54.5 -51t-62 -36.5t-74.5 -13.5zM387 0q-12 0 -14 12
q-3 15 -6 36.5t-3 39.5l-12 57v525q0 13 13 13h114q12 0 12 -13v-547q0 -18 1 -37.5t2.5 -37.5t2.5 -33q3 -15 -12 -15h-98zM555 526q-9 0 -8 10l12 53q-12 5 -20 14.5t-8 27.5v19q0 22 15 34t43 12t42.5 -11.5t14.5 -33.5v-21q0 -11 -1.5 -22t-6.5 -23l-19 -51
q-3 -8 -11 -8h-53z" />
    <glyph glyph-name="dcroat" unicode="&#x111;" horiz-adv-x="553" 
d="M271 550q-13 0 -13 12v64q0 13 13 13h274q13 0 13 -13v-64q0 -12 -13 -12h-54h-220zM189 -12q-70 0 -106.5 42t-36.5 130v144q0 105 47 154t130 49q34 0 75 -9t67 -25l4 -108q-26 14 -54 21t-50 7q-41 0 -60.5 -26t-19.5 -75v-108q0 -38 14.5 -57t46.5 -19q21 0 41 8.5
t41 24.5t45 40l7 -92q-26 -28 -54.5 -51t-62 -36.5t-74.5 -13.5zM387 0q-12 0 -14 12q-3 15 -6 36.5t-3 39.5l-12 57v525q0 13 13 13h114q12 0 12 -13v-547q0 -18 1 -37.5t2.5 -37.5t2.5 -33q3 -15 -12 -15h-98z" />
    <glyph glyph-name="e" unicode="e" horiz-adv-x="537" 
d="M271 -12q-116 0 -171.5 49.5t-55.5 146.5v115q0 102 55.5 155t169.5 53q111 0 167.5 -51t56.5 -150v-78q0 -13 -13 -13h-298v-30q0 -46 20.5 -68.5t67.5 -22.5q36 0 57 11.5t21 34.5q0 13 13 13h109q12 0 13 -13q2 -76 -51 -114t-161 -38zM182 299h175v5q0 50 -21 73
t-65 23q-47 0 -68 -23.5t-21 -73.5v-4z" />
    <glyph glyph-name="eacute" unicode="&#xe9;" horiz-adv-x="537" 
d="M271 -12q-116 0 -171.5 49.5t-55.5 146.5v115q0 102 55.5 155t169.5 53q111 0 167.5 -51t56.5 -150v-78q0 -13 -13 -13h-298v-30q0 -46 20.5 -68.5t67.5 -22.5q36 0 57 11.5t21 34.5q0 13 13 13h109q12 0 13 -13q2 -76 -51 -114t-161 -38zM182 299h175v5q0 50 -21 73
t-65 23q-47 0 -68 -23.5t-21 -73.5v-4zM194 562q-14 0 -7 14l69 127q5 10 15 10h103q7 0 8.5 -5t-2.5 -10l-94 -128q-5 -8 -15 -8h-77z" />
    <glyph glyph-name="ecaron" unicode="&#x11b;" horiz-adv-x="537" 
d="M271 -12q-116 0 -171.5 49.5t-55.5 146.5v115q0 102 55.5 155t169.5 53q111 0 167.5 -51t56.5 -150v-78q0 -13 -13 -13h-298v-30q0 -46 20.5 -68.5t67.5 -22.5q36 0 57 11.5t21 34.5q0 13 13 13h109q12 0 13 -13q2 -76 -51 -114t-161 -38zM182 299h175v5q0 50 -21 73
t-65 23q-47 0 -68 -23.5t-21 -73.5v-4zM259 554l-121 71q-8 4 -8 14v71q0 15 14 7l123 -62l123 62q15 8 15 -7v-71q0 -10 -8 -14l-121 -71q-9 -6 -17 0z" />
    <glyph glyph-name="ecircumflex" unicode="&#xea;" horiz-adv-x="537" 
d="M271 -12q-116 0 -171.5 49.5t-55.5 146.5v115q0 102 55.5 155t169.5 53q111 0 167.5 -51t56.5 -150v-78q0 -13 -13 -13h-298v-30q0 -46 20.5 -68.5t67.5 -22.5q36 0 57 11.5t21 34.5q0 13 13 13h109q12 0 13 -13q2 -76 -51 -114t-161 -38zM182 299h175v5q0 50 -21 73
t-65 23q-47 0 -68 -23.5t-21 -73.5v-4zM144 553q-14 -7 -14 7v71q0 10 7 14l122 72q8 5 17 0l121 -72q8 -4 8 -14v-71q0 -14 -15 -7l-123 62z" />
    <glyph glyph-name="edieresis" unicode="&#xeb;" horiz-adv-x="537" 
d="M271 -12q-116 0 -171.5 49.5t-55.5 146.5v115q0 102 55.5 155t169.5 53q111 0 167.5 -51t56.5 -150v-78q0 -13 -13 -13h-298v-30q0 -46 20.5 -68.5t67.5 -22.5q36 0 57 11.5t21 34.5q0 13 13 13h109q12 0 13 -13q2 -76 -51 -114t-161 -38zM182 299h175v5q0 50 -21 73
t-65 23q-47 0 -68 -23.5t-21 -73.5v-4zM167 565q-34 0 -52 17.5t-18 46.5v17q0 31 18 48t52 17q36 0 53.5 -17t17.5 -48v-17q0 -29 -17.5 -46.5t-53.5 -17.5zM366 565q-34 0 -52 17.5t-18 46.5v17q0 31 18 48t52 17q36 0 53.5 -17t17.5 -48v-17q0 -29 -17.5 -46.5
t-53.5 -17.5z" />
    <glyph glyph-name="edotaccent" unicode="&#x117;" horiz-adv-x="537" 
d="M271 -12q-116 0 -171.5 49.5t-55.5 146.5v115q0 102 55.5 155t169.5 53q111 0 167.5 -51t56.5 -150v-78q0 -13 -13 -13h-298v-30q0 -46 20.5 -68.5t67.5 -22.5q36 0 57 11.5t21 34.5q0 13 13 13h109q12 0 13 -13q2 -76 -51 -114t-161 -38zM182 299h175v5q0 50 -21 73
t-65 23q-47 0 -68 -23.5t-21 -73.5v-4zM267 564q-37 0 -57 19t-20 50v18q0 33 20 51.5t57 18.5q38 0 57.5 -18.5t19.5 -51.5v-18q0 -31 -19.5 -50t-57.5 -19z" />
    <glyph glyph-name="egrave" unicode="&#xe8;" horiz-adv-x="537" 
d="M271 -12q-116 0 -171.5 49.5t-55.5 146.5v115q0 102 55.5 155t169.5 53q111 0 167.5 -51t56.5 -150v-78q0 -13 -13 -13h-298v-30q0 -46 20.5 -68.5t67.5 -22.5q36 0 57 11.5t21 34.5q0 13 13 13h109q12 0 13 -13q2 -76 -51 -114t-161 -38zM182 299h175v5q0 50 -21 73
t-65 23q-47 0 -68 -23.5t-21 -73.5v-4zM261 562q-9 0 -15 8l-93 128q-4 5 -2.5 10t7.5 5h103q11 0 16 -10l69 -127q7 -14 -7 -14h-78z" />
    <glyph glyph-name="emacron" unicode="&#x113;" horiz-adv-x="537" 
d="M271 -12q-116 0 -171.5 49.5t-55.5 146.5v115q0 102 55.5 155t169.5 53q111 0 167.5 -51t56.5 -150v-78q0 -13 -13 -13h-298v-30q0 -46 20.5 -68.5t67.5 -22.5q36 0 57 11.5t21 34.5q0 13 13 13h109q12 0 13 -13q2 -76 -51 -114t-161 -38zM182 299h175v5q0 50 -21 73
t-65 23q-47 0 -68 -23.5t-21 -73.5v-4zM157 575q-13 0 -13 13v75q0 12 13 12h219q13 0 13 -12v-75q0 -13 -13 -13h-219z" />
    <glyph glyph-name="eogonek" unicode="&#x119;" horiz-adv-x="537" 
d="M271 -12q-116 0 -171.5 49.5t-55.5 146.5v115q0 102 55.5 155t169.5 53q111 0 167.5 -51t56.5 -150v-78q0 -13 -13 -13h-298v-30q0 -46 20.5 -68.5t67.5 -22.5q36 0 57 11.5t21 34.5q0 13 13 13h109q12 0 13 -13q2 -76 -51 -114t-161 -38zM182 299h175v5q0 50 -21 73
t-65 23q-47 0 -68 -23.5t-21 -73.5v-4zM333 -197q-51 0 -80 23.5t-29 60.5v11q0 46 38.5 79.5t109.5 51.5l16 -15l-2 -11q-27 -11 -41.5 -28.5t-14.5 -38.5v-6q0 -26 33 -26q8 0 15 0.5t15 1.5q10 2 10 -9v-75q0 -6 -1.5 -8t-8.5 -4q-14 -4 -30 -5.5t-30 -1.5z" />
    <glyph glyph-name="f" unicode="f" horiz-adv-x="390" 
d="M112 0q-5 0 -9 4t-4 9v366h-72q-5 0 -9 4t-4 9v90q0 6 4 9.5t9 3.5h72v35q0 82 45.5 123.5t131.5 41.5q35 0 65.5 -4t48.5 -10q14 -4 14 -16v-84q0 -8 -4.5 -10.5t-15.5 0.5q-16 6 -36 10t-41 4q-36 0 -52.5 -16t-16.5 -48v-26h118q14 0 14 -14v-89q0 -5 -4 -9t-9 -4
h-119v-366q0 -5 -3.5 -9t-9.5 -4h-113z" />
    <glyph glyph-name="g" unicode="g" horiz-adv-x="522" 
d="M253 -197q-124 0 -179 30.5t-55 91.5q0 36 18 66t58 51l105 -31q-22 -9 -32 -23.5t-10 -32.5q0 -27 22.5 -37.5t79.5 -10.5q65 -1 86.5 9.5t21.5 38.5q0 19 -9.5 28.5t-31.5 10.5l-180 11q-42 4 -68 28t-26 68q0 33 15.5 59t53.5 49l83 -33q-19 -7 -26.5 -17t-7.5 -21
q0 -12 8 -17t27 -7l157 -10q76 -5 108.5 -41.5t32.5 -105.5q0 -81 -59.5 -117.5t-191.5 -36.5zM264 160q-102 0 -151.5 42.5t-49.5 129.5q0 89 49.5 132t152.5 43t151.5 -43t48.5 -133q0 -87 -49 -129t-152 -42zM264 263q39 0 54 16t15 54t-15 54.5t-54 16.5
q-38 0 -53.5 -16.5t-15.5 -54.5t15.5 -54t53.5 -16zM403 451l-95 36q2 37 5.5 68.5t7.5 55.5q3 12 12 12h91q16 0 11 -14q-12 -35 -19.5 -73t-12.5 -85z" />
    <glyph glyph-name="gbreve" unicode="&#x11f;" horiz-adv-x="522" 
d="M253 -197q-124 0 -179 30.5t-55 91.5q0 36 18 66t58 51l105 -31q-22 -9 -32 -23.5t-10 -32.5q0 -27 22.5 -37.5t79.5 -10.5q65 -1 86.5 9.5t21.5 38.5q0 19 -9.5 28.5t-31.5 10.5l-180 11q-42 4 -68 28t-26 68q0 33 15.5 59t53.5 49l83 -33q-19 -7 -26.5 -17t-7.5 -21
q0 -12 8 -17t27 -7l157 -10q76 -5 108.5 -41.5t32.5 -105.5q0 -81 -59.5 -117.5t-191.5 -36.5zM264 160q-102 0 -151.5 42.5t-49.5 129.5q0 89 49.5 132t152.5 43t151.5 -43t48.5 -133q0 -87 -49 -129t-152 -42zM264 263q39 0 54 16t15 54t-15 54.5t-54 16.5
q-38 0 -53.5 -16.5t-15.5 -54.5t15.5 -54t53.5 -16zM267 555q-33 0 -59 9.5t-44 22.5t-28 23q-4 4 -4 13v74q0 8 4 10t10 -3q19 -17 50 -34t71 -17t71.5 16.5t48.5 34.5q6 6 10.5 3.5t4.5 -10.5v-74q0 -4 -1 -8.5t-5 -7.5q-11 -9 -28.5 -21t-42.5 -21.5t-58 -9.5z" />
    <glyph glyph-name="uni0123" unicode="&#x123;" horiz-adv-x="522" 
d="M253 -197q-124 0 -179 30.5t-55 91.5q0 36 18 66t58 51l105 -31q-22 -9 -32 -23.5t-10 -32.5q0 -27 22.5 -37.5t79.5 -10.5q65 -1 86.5 9.5t21.5 38.5q0 19 -9.5 28.5t-31.5 10.5l-180 11q-42 4 -68 28t-26 68q0 33 15.5 59t53.5 49l83 -33q-19 -7 -26.5 -17t-7.5 -21
q0 -12 8 -17t27 -7l157 -10q76 -5 108.5 -41.5t32.5 -105.5q0 -81 -59.5 -117.5t-191.5 -36.5zM264 160q-102 0 -151.5 42.5t-49.5 129.5q0 89 49.5 132t152.5 43t151.5 -43t48.5 -133q0 -87 -49 -129t-152 -42zM264 263q39 0 54 16t15 54t-15 54.5t-54 16.5
q-38 0 -53.5 -16.5t-15.5 -54.5t15.5 -54t53.5 -16zM267 557q-32 0 -48.5 14.5t-16.5 42.5v19q0 14 2 26.5t7 27.5l24 69q3 8 12 8h58q10 0 8 -12l-13 -69q14 -6 22 -19t8 -32v-18q0 -28 -16.5 -42.5t-46.5 -14.5z" />
    <glyph glyph-name="gdotaccent" unicode="&#x121;" horiz-adv-x="522" 
d="M253 -197q-124 0 -179 30.5t-55 91.5q0 36 18 66t58 51l105 -31q-22 -9 -32 -23.5t-10 -32.5q0 -27 22.5 -37.5t79.5 -10.5q65 -1 86.5 9.5t21.5 38.5q0 19 -9.5 28.5t-31.5 10.5l-180 11q-42 4 -68 28t-26 68q0 33 15.5 59t53.5 49l83 -33q-19 -7 -26.5 -17t-7.5 -21
q0 -12 8 -17t27 -7l157 -10q76 -5 108.5 -41.5t32.5 -105.5q0 -81 -59.5 -117.5t-191.5 -36.5zM264 160q-102 0 -151.5 42.5t-49.5 129.5q0 89 49.5 132t152.5 43t151.5 -43t48.5 -133q0 -87 -49 -129t-152 -42zM264 263q39 0 54 16t15 54t-15 54.5t-54 16.5
q-38 0 -53.5 -16.5t-15.5 -54.5t15.5 -54t53.5 -16zM266 559q-37 0 -57 19t-20 50v18q0 33 20 51.5t57 18.5q38 0 57.5 -18.5t19.5 -51.5v-18q0 -31 -19.5 -50t-57.5 -19z" />
    <glyph glyph-name="h" unicode="h" horiz-adv-x="560" 
d="M378 0q-13 0 -13 13v302q0 36 -14.5 54t-46.5 18t-64 -19.5t-62 -52.5l-8 93q26 28 54.5 50t61.5 35.5t74 13.5q72 0 108 -40t36 -124v-330q0 -13 -13 -13h-113zM69 0q-13 0 -13 13v657q0 13 13 13h113q13 0 13 -13v-657q0 -13 -13 -13h-113z" />
    <glyph glyph-name="hbar" unicode="&#x127;" horiz-adv-x="566" 
d="M9 550q-13 0 -13 12v64q0 13 13 13h274q12 0 12 -13v-64q0 -12 -12 -12h-221h-53zM383 0q-13 0 -13 13v302q0 36 -14 54t-46 18t-64 -19.5t-62 -52.5l-8 93q26 28 54 50t61.5 35.5t74.5 13.5q71 0 107 -40t36 -124v-330q0 -13 -12 -13h-114zM75 0q-13 0 -13 13v657
q0 13 13 13h113q13 0 13 -13v-657q0 -13 -13 -13h-113z" />
    <glyph glyph-name="i" unicode="i" horiz-adv-x="251" 
d="M69 0q-13 0 -13 13v469q0 13 13 13h113q13 0 13 -13v-469q0 -13 -13 -13h-113zM126 559q-37 0 -57 19t-20 50v18q0 33 20 51.5t57 18.5q38 0 57.5 -18.5t19.5 -51.5v-18q0 -31 -19.5 -50t-57.5 -19z" />
    <glyph glyph-name="dotlessi" unicode="&#x131;" horiz-adv-x="251" 
d="M69 0q-13 0 -13 13v469q0 13 13 13h113q13 0 13 -13v-469q0 -13 -13 -13h-113z" />
    <glyph glyph-name="iacute" unicode="&#xed;" horiz-adv-x="251" 
d="M69 0q-13 0 -13 13v469q0 13 13 13h113q13 0 13 -13v-469q0 -13 -13 -13h-113zM52 557q-14 0 -7 14l69 127q5 10 15 10h103q7 0 8.5 -5t-2.5 -10l-94 -128q-5 -8 -15 -8h-77z" />
    <glyph glyph-name="icircumflex" unicode="&#xee;" horiz-adv-x="251" 
d="M69 0q-13 0 -13 13v469q0 13 13 13h113q13 0 13 -13v-469q0 -13 -13 -13h-113zM3 548q-14 -7 -14 7v71q0 10 7 14l122 72q8 5 17 0l121 -72q8 -4 8 -14v-71q0 -14 -15 -7l-123 62z" />
    <glyph glyph-name="idieresis" unicode="&#xef;" horiz-adv-x="251" 
d="M69 0q-13 0 -13 13v469q0 13 13 13h113q13 0 13 -13v-469q0 -13 -13 -13h-113zM25 560q-34 0 -52 17.5t-18 46.5v17q0 31 18 48t52 17q36 0 53.5 -17t17.5 -48v-17q0 -29 -17.5 -46.5t-53.5 -17.5zM224 560q-34 0 -52 17.5t-18 46.5v17q0 31 18 48t52 17q36 0 53.5 -17
t17.5 -48v-17q0 -29 -17.5 -46.5t-53.5 -17.5z" />
    <glyph glyph-name="i.loclTRK" horiz-adv-x="251" 
d="M69 0q-13 0 -13 13v469q0 13 13 13h113q13 0 13 -13v-469q0 -13 -13 -13h-113zM126 559q-37 0 -57 19t-20 50v18q0 33 20 51.5t57 18.5q38 0 57.5 -18.5t19.5 -51.5v-18q0 -31 -19.5 -50t-57.5 -19z" />
    <glyph glyph-name="igrave" unicode="&#xec;" horiz-adv-x="251" 
d="M69 0q-13 0 -13 13v469q0 13 13 13h113q13 0 13 -13v-469q0 -13 -13 -13h-113zM120 557q-9 0 -15 8l-93 128q-4 5 -2.5 10t7.5 5h103q11 0 16 -10l69 -127q7 -14 -7 -14h-78z" />
    <glyph glyph-name="ij" unicode="&#x133;" horiz-adv-x="503" 
d="M69 0q-13 0 -13 13v469q0 13 13 13h113q13 0 13 -13v-469q0 -13 -13 -13h-113zM126 559q-37 0 -57 19t-20 50v18q0 33 20 51.5t57 18.5q38 0 57.5 -18.5t19.5 -51.5v-18q0 -31 -19.5 -50t-57.5 -19zM315 -191q-8 -6 -15 3l-67 77q-4 5 -3.5 10.5t5.5 8.5q24 18 40 42.5
t24 57t8 76.5v398q0 6 4 9.5t9 3.5h113q6 0 9.5 -3.5t3.5 -9.5v-399q0 -68 -12.5 -118.5t-41 -88.5t-77.5 -67zM379 559q-37 0 -57 19t-20 50v18q0 33 20 51.5t57 18.5q38 0 57.5 -18.5t19.5 -51.5v-18q0 -31 -19.5 -50t-57.5 -19z" />
    <glyph glyph-name="imacron" unicode="&#x12b;" horiz-adv-x="251" 
d="M69 0q-13 0 -13 13v469q0 13 13 13h113q13 0 13 -13v-469q0 -13 -13 -13h-113zM16 570q-13 0 -13 13v75q0 12 13 12h219q13 0 13 -12v-75q0 -13 -13 -13h-219z" />
    <glyph glyph-name="iogonek" unicode="&#x12f;" horiz-adv-x="251" 
d="M69 0q-13 0 -13 13v469q0 13 13 13h113q13 0 13 -13v-469q0 -13 -13 -13h-113zM126 559q-37 0 -57 19t-20 50v18q0 33 20 51.5t57 18.5q38 0 57.5 -18.5t19.5 -51.5v-18q0 -31 -19.5 -50t-57.5 -19zM128 -197q-51 0 -80 23.5t-29 60.5v11q0 46 38.5 79.5t109.5 51.5
l16 -15l-2 -11q-27 -11 -41.5 -28.5t-14.5 -38.5v-6q0 -26 33 -26q8 0 15 0.5t15 1.5q10 2 10 -9v-75q0 -6 -1.5 -8t-8.5 -4q-14 -4 -30 -5.5t-30 -1.5z" />
    <glyph glyph-name="j" unicode="j" horiz-adv-x="252" 
d="M64 -191q-8 -6 -15 3l-67 77q-4 5 -3.5 10.5t5.5 8.5q24 18 40 42.5t24 57t8 76.5v398q0 6 4 9.5t9 3.5h113q6 0 9.5 -3.5t3.5 -9.5v-399q0 -68 -12.5 -118.5t-41 -88.5t-77.5 -67zM127 559q-37 0 -57 19t-20 50v18q0 33 20 51.5t57 18.5q38 0 57.5 -18.5t19.5 -51.5v-18
q0 -31 -19.5 -50t-57.5 -19z" />
    <glyph glyph-name="uni0237" unicode="&#x237;" horiz-adv-x="252" 
d="M64 -191q-8 -6 -15 3l-67 77q-4 5 -3.5 10.5t5.5 8.5q24 18 40 42.5t24 57t8 76.5v398q0 6 4 9.5t9 3.5h113q6 0 9.5 -3.5t3.5 -9.5v-399q0 -68 -12.5 -118.5t-41 -88.5t-77.5 -67z" />
    <glyph glyph-name="k" unicode="k" horiz-adv-x="532" 
d="M69 0q-13 0 -13 13v657q0 13 13 13h113q13 0 13 -13v-236q0 -34 -0.5 -68.5t-2.5 -69.5h3q15 24 32.5 47.5t34.5 44.5l81 100q6 7 15 7h141q8 0 10 -4.5t-3 -11.5l-166 -191l180 -273q4 -6 1.5 -10.5t-9.5 -4.5h-134q-10 0 -16 8l-117 185l-50 -55v-125q0 -13 -13 -13
h-113z" />
    <glyph glyph-name="uni0137" unicode="&#x137;" horiz-adv-x="532" 
d="M69 0q-13 0 -13 13v657q0 13 13 13h113q13 0 13 -13v-236q0 -34 -0.5 -68.5t-2.5 -69.5h3q15 24 32.5 47.5t34.5 44.5l81 100q6 7 15 7h141q8 0 10 -4.5t-3 -11.5l-166 -191l180 -273q4 -6 1.5 -10.5t-9.5 -4.5h-134q-10 0 -16 8l-117 185l-50 -55v-125q0 -13 -13 -13
h-113zM232 -263q-11 0 -8 11l13 70q-15 5 -23 18.5t-8 32.5v18q0 28 16.5 42.5t46.5 14.5q33 0 49 -14.5t16 -42.5v-20q0 -13 -2 -25.5t-7 -27.5l-23 -68q-3 -9 -13 -9h-57z" />
    <glyph glyph-name="kgreenlandic" unicode="&#x138;" horiz-adv-x="532" 
d="M69 0q-13 0 -13 13v469q0 13 13 13h113q13 0 13 -13v-48q0 -34 -0.5 -68.5t-2.5 -69.5h3q15 24 32.5 47.5t34.5 44.5l81 100q6 7 15 7h141q8 0 10 -4.5t-3 -11.5l-166 -191l180 -273q4 -6 1.5 -10.5t-9.5 -4.5h-134q-10 0 -16 8l-117 185l-50 -55v-125q0 -13 -13 -13
h-113z" />
    <glyph glyph-name="l" unicode="l" horiz-adv-x="251" 
d="M69 0q-13 0 -13 13v657q0 13 13 13h113q13 0 13 -13v-657q0 -13 -13 -13h-113z" />
    <glyph glyph-name="lacute" unicode="&#x13a;" horiz-adv-x="251" 
d="M69 0q-13 0 -13 13v657q0 13 13 13h113q13 0 13 -13v-657q0 -13 -13 -13h-113zM51 736q-6 0 -8 3.5t1 9.5l61 112q5 10 14 10h104q6 0 7.5 -4.5t-2.5 -10.5l-84 -113q-5 -7 -14 -7h-79z" />
    <glyph glyph-name="lcaron" unicode="&#x13e;" horiz-adv-x="252" 
d="M69 0q-13 0 -13 13v657q0 13 13 13h113q13 0 13 -13v-657q0 -13 -13 -13h-113zM259 526q-9 0 -8 10l12 53q-12 5 -20 14.5t-8 27.5v19q0 22 15 34t43 12t42.5 -11.5t14.5 -33.5v-21q0 -11 -1.5 -22t-6.5 -23l-19 -51q-3 -8 -11 -8h-53z" />
    <glyph glyph-name="uni013C" unicode="&#x13c;" horiz-adv-x="251" 
d="M69 0q-13 0 -13 13v657q0 13 13 13h113q13 0 13 -13v-657q0 -13 -13 -13h-113zM88 -263q-11 0 -8 11l13 70q-15 5 -23 18.5t-8 32.5v18q0 28 16.5 42.5t46.5 14.5q33 0 49 -14.5t16 -42.5v-20q0 -13 -2 -25.5t-7 -27.5l-23 -68q-3 -9 -13 -9h-57z" />
    <glyph glyph-name="lslash" unicode="&#x142;" horiz-adv-x="257" 
d="M8 319q-6 -2 -10.5 1.5t-4.5 9.5v75q0 11 10 14l246 90q7 2 11 -1t4 -10v-74q0 -12 -11 -15l-193 -69zM72 0q-12 0 -12 13v657q0 13 12 13h114q13 0 13 -13v-657q0 -13 -13 -13h-114z" />
    <glyph glyph-name="m" unicode="m" horiz-adv-x="836" 
d="M69 0q-13 0 -13 13v355q0 30 -1.5 58.5t-4.5 54.5q-2 14 13 14h99q11 0 13 -10q3 -13 5.5 -29.5t3.5 -32.5q35 35 74 59.5t91 24.5q53 0 82 -21t42 -63q36 36 76.5 60t91.5 24q70 0 104.5 -40t34.5 -124v-330q0 -13 -13 -13h-113q-13 0 -13 13v302q0 36 -13 54t-42 18
q-25 0 -48.5 -13.5t-49.5 -39.5v-321q0 -13 -13 -13h-113q-13 0 -13 13v302q0 36 -13 54t-43 18q-25 0 -48 -13.5t-50 -39.5v-321q0 -13 -13 -13h-113z" />
    <glyph glyph-name="n" unicode="n" horiz-adv-x="560" 
d="M378 0q-13 0 -13 13v302q0 37 -14.5 54.5t-46.5 17.5t-62.5 -19t-64.5 -54l-8 93q26 28 54.5 50.5t62 36t74.5 13.5q71 0 107.5 -40t36.5 -124v-330q0 -13 -13 -13h-113zM69 0q-13 0 -13 13v355q0 30 -2 60t-4 52q-2 15 13 15h99q11 0 14 -11q2 -9 4 -23.5t4 -30.5t2 -29
l9 -50v-338q0 -13 -13 -13h-113z" />
    <glyph glyph-name="nacute" unicode="&#x144;" horiz-adv-x="560" 
d="M378 0q-13 0 -13 13v302q0 37 -14.5 54.5t-46.5 17.5t-62.5 -19t-64.5 -54l-8 93q26 28 54.5 50.5t62 36t74.5 13.5q71 0 107.5 -40t36.5 -124v-330q0 -13 -13 -13h-113zM69 0q-13 0 -13 13v355q0 30 -2 60t-4 52q-2 15 13 15h99q11 0 14 -11q2 -9 4 -23.5t4 -30.5t2 -29
l9 -50v-338q0 -13 -13 -13h-113zM207 557q-14 0 -7 14l69 127q5 10 15 10h103q7 0 8.5 -5t-2.5 -10l-94 -128q-5 -8 -15 -8h-77z" />
    <glyph glyph-name="ncaron" unicode="&#x148;" horiz-adv-x="560" 
d="M378 0q-13 0 -13 13v302q0 37 -14.5 54.5t-46.5 17.5t-62.5 -19t-64.5 -54l-8 93q26 28 54.5 50.5t62 36t74.5 13.5q71 0 107.5 -40t36.5 -124v-330q0 -13 -13 -13h-113zM69 0q-13 0 -13 13v355q0 30 -2 60t-4 52q-2 15 13 15h99q11 0 14 -11q2 -9 4 -23.5t4 -30.5t2 -29
l9 -50v-338q0 -13 -13 -13h-113zM272 549l-121 71q-8 4 -8 14v71q0 15 14 7l123 -62l123 62q15 8 15 -7v-71q0 -10 -8 -14l-121 -71q-9 -6 -17 0z" />
    <glyph glyph-name="uni0146" unicode="&#x146;" horiz-adv-x="560" 
d="M378 0q-13 0 -13 13v302q0 37 -14.5 54.5t-46.5 17.5t-62.5 -19t-64.5 -54l-8 93q26 28 54.5 50.5t62 36t74.5 13.5q71 0 107.5 -40t36.5 -124v-330q0 -13 -13 -13h-113zM69 0q-13 0 -13 13v355q0 30 -2 60t-4 52q-2 15 13 15h99q11 0 14 -11q2 -9 4 -23.5t4 -30.5t2 -29
l9 -50v-338q0 -13 -13 -13h-113zM249 -263q-11 0 -8 11l13 70q-15 5 -23 18.5t-8 32.5v18q0 28 16.5 42.5t46.5 14.5q33 0 49 -14.5t16 -42.5v-20q0 -13 -2 -25.5t-7 -27.5l-23 -68q-3 -9 -13 -9h-57z" />
    <glyph glyph-name="eng" unicode="&#x14b;" horiz-adv-x="560" 
d="M373 -191q-9 -6 -15 3l-68 77q-3 5 -3 10.5t6 8.5q24 18 40 42t24 57t8 77v231q0 37 -14.5 54.5t-46.5 17.5q-27 0 -53 -13.5t-56 -41.5v-319q0 -13 -13 -13h-113q-13 0 -13 13v355q0 30 -2 60t-4 52q-2 15 13 15h99q11 0 14 -11q2 -12 4.5 -28t3.5 -33q38 36 79 60
t97 24q71 0 107.5 -40t36.5 -124v-260q0 -68 -13 -119t-41.5 -88.5t-76.5 -66.5z" />
    <glyph glyph-name="ntilde" unicode="&#xf1;" horiz-adv-x="560" 
d="M378 0q-13 0 -13 13v302q0 37 -14.5 54.5t-46.5 17.5t-62.5 -19t-64.5 -54l-8 93q26 28 54.5 50.5t62 36t74.5 13.5q71 0 107.5 -40t36.5 -124v-330q0 -13 -13 -13h-113zM69 0q-13 0 -13 13v355q0 30 -2 60t-4 52q-2 15 13 15h99q11 0 14 -11q2 -9 4 -23.5t4 -30.5t2 -29
l9 -50v-338q0 -13 -13 -13h-113zM333 563q-21 0 -38 7.5t-33.5 14.5t-35.5 7q-17 0 -35 -7t-33 -14q-15 -6 -15 9v65q0 10 7 16q12 9 32.5 19t45.5 10q26 0 43 -7t32 -14.5t32 -7.5q18 0 36 7t32 13q15 8 15 -8v-65q0 -10 -7 -16q-12 -9 -32.5 -19t-45.5 -10z" />
    <glyph glyph-name="o" unicode="o" horiz-adv-x="549" 
d="M274 -12q-109 0 -169.5 52t-60.5 156v103q0 104 60.5 156t169.5 52q110 0 170 -52t60 -156v-103q0 -104 -60 -156t-170 -52zM274 106q48 0 69.5 24.5t21.5 78.5v77q0 54 -21.5 78.5t-69.5 24.5q-47 0 -69 -24.5t-22 -78.5v-77q0 -54 22 -78.5t69 -24.5z" />
    <glyph glyph-name="oacute" unicode="&#xf3;" horiz-adv-x="549" 
d="M274 -12q-109 0 -169.5 52t-60.5 156v103q0 104 60.5 156t169.5 52q110 0 170 -52t60 -156v-103q0 -104 -60 -156t-170 -52zM274 106q48 0 69.5 24.5t21.5 78.5v77q0 54 -21.5 78.5t-69.5 24.5q-47 0 -69 -24.5t-22 -78.5v-77q0 -54 22 -78.5t69 -24.5zM201 557
q-14 0 -7 14l69 127q5 10 15 10h103q7 0 8.5 -5t-2.5 -10l-94 -128q-5 -8 -15 -8h-77z" />
    <glyph glyph-name="ocircumflex" unicode="&#xf4;" horiz-adv-x="549" 
d="M274 -12q-109 0 -169.5 52t-60.5 156v103q0 104 60.5 156t169.5 52q110 0 170 -52t60 -156v-103q0 -104 -60 -156t-170 -52zM274 106q48 0 69.5 24.5t21.5 78.5v77q0 54 -21.5 78.5t-69.5 24.5q-47 0 -69 -24.5t-22 -78.5v-77q0 -54 22 -78.5t69 -24.5zM151 548
q-14 -7 -14 7v71q0 10 7 14l122 72q8 5 17 0l121 -72q8 -4 8 -14v-71q0 -14 -15 -7l-123 62z" />
    <glyph glyph-name="odieresis" unicode="&#xf6;" horiz-adv-x="549" 
d="M274 -12q-109 0 -169.5 52t-60.5 156v103q0 104 60.5 156t169.5 52q110 0 170 -52t60 -156v-103q0 -104 -60 -156t-170 -52zM274 106q48 0 69.5 24.5t21.5 78.5v77q0 54 -21.5 78.5t-69.5 24.5q-47 0 -69 -24.5t-22 -78.5v-77q0 -54 22 -78.5t69 -24.5zM174 560
q-34 0 -52 17.5t-18 46.5v17q0 31 18 48t52 17q36 0 53.5 -17t17.5 -48v-17q0 -29 -17.5 -46.5t-53.5 -17.5zM373 560q-34 0 -52 17.5t-18 46.5v17q0 31 18 48t52 17q36 0 53.5 -17t17.5 -48v-17q0 -29 -17.5 -46.5t-53.5 -17.5z" />
    <glyph glyph-name="ograve" unicode="&#xf2;" horiz-adv-x="549" 
d="M274 -12q-109 0 -169.5 52t-60.5 156v103q0 104 60.5 156t169.5 52q110 0 170 -52t60 -156v-103q0 -104 -60 -156t-170 -52zM274 106q48 0 69.5 24.5t21.5 78.5v77q0 54 -21.5 78.5t-69.5 24.5q-47 0 -69 -24.5t-22 -78.5v-77q0 -54 22 -78.5t69 -24.5zM268 557
q-9 0 -15 8l-93 128q-4 5 -2.5 10t7.5 5h103q11 0 16 -10l69 -127q7 -14 -7 -14h-78z" />
    <glyph glyph-name="ohungarumlaut" unicode="&#x151;" horiz-adv-x="549" 
d="M274 -12q-109 0 -169.5 52t-60.5 156v103q0 104 60.5 156t169.5 52q110 0 170 -52t60 -156v-103q0 -104 -60 -156t-170 -52zM274 106q48 0 69.5 24.5t21.5 78.5v77q0 54 -21.5 78.5t-69.5 24.5q-47 0 -69 -24.5t-22 -78.5v-77q0 -54 22 -78.5t69 -24.5zM140 557
q-14 0 -8 13l57 137q4 10 15 10h97q16 0 8 -15l-76 -136q-5 -9 -15 -9h-78zM310 557q-14 0 -8 13l57 137q4 10 15 10h98q15 0 7 -15l-76 -136q-5 -9 -15 -9h-78z" />
    <glyph glyph-name="omacron" unicode="&#x14d;" horiz-adv-x="549" 
d="M274 -12q-109 0 -169.5 52t-60.5 156v103q0 104 60.5 156t169.5 52q110 0 170 -52t60 -156v-103q0 -104 -60 -156t-170 -52zM274 106q48 0 69.5 24.5t21.5 78.5v77q0 54 -21.5 78.5t-69.5 24.5q-47 0 -69 -24.5t-22 -78.5v-77q0 -54 22 -78.5t69 -24.5zM164 570
q-13 0 -13 13v75q0 12 13 12h219q13 0 13 -12v-75q0 -13 -13 -13h-219z" />
    <glyph glyph-name="oslash" unicode="&#xf8;" horiz-adv-x="549" 
d="M26 -52q-8 0 -10 5t2 11l85 123l64 62l165 245l33 85l42 58q5 8 16 8h99q8 0 10.5 -4t-1.5 -11l-84 -120l-64 -61l-163 -244l-31 -81l-47 -67q-6 -9 -16 -9h-100zM274 -12q-109 0 -169.5 52t-60.5 156v103q0 104 60.5 156t169.5 52q110 0 170 -52t60 -156v-103
q0 -104 -60 -156t-170 -52zM274 106q48 0 69.5 24.5t21.5 78.5v77q0 54 -21.5 78.5t-69.5 24.5q-47 0 -69 -24.5t-22 -78.5v-77q0 -54 22 -78.5t69 -24.5z" />
    <glyph glyph-name="otilde" unicode="&#xf5;" horiz-adv-x="549" 
d="M274 -12q-109 0 -169.5 52t-60.5 156v103q0 104 60.5 156t169.5 52q110 0 170 -52t60 -156v-103q0 -104 -60 -156t-170 -52zM274 106q48 0 69.5 24.5t21.5 78.5v77q0 54 -21.5 78.5t-69.5 24.5q-47 0 -69 -24.5t-22 -78.5v-77q0 -54 22 -78.5t69 -24.5zM327 563
q-21 0 -38 7.5t-33.5 14.5t-35.5 7q-17 0 -35 -7t-33 -14q-15 -6 -15 9v65q0 10 7 16q12 9 32.5 19t45.5 10q26 0 43 -7t32 -14.5t32 -7.5q18 0 36 7t32 13q15 8 15 -8v-65q0 -10 -7 -16q-12 -9 -32.5 -19t-45.5 -10z" />
    <glyph glyph-name="oe" unicode="&#x153;" horiz-adv-x="853" 
d="M265 -12q-103 0 -162 54t-59 154v103q0 101 59 154.5t161 53.5q55 0 95 -15.5t67 -51.5q28 34 71.5 50.5t95.5 16.5q106 0 161.5 -51t55.5 -150v-78q0 -13 -13 -13h-299v-30q0 -46 20.5 -68.5t67.5 -22.5q37 0 57.5 12t20.5 33q0 14 13 14h110q12 0 12 -14
q0 -76 -53 -113.5t-158 -37.5q-55 0 -95 14.5t-69 50.5q-29 -36 -67 -50.5t-92 -14.5zM272 106q45 0 67 24t22 77v81q0 53 -22 77t-67 24q-44 0 -66.5 -24t-22.5 -77v-81q0 -53 22.5 -77t66.5 -24zM498 299h175v4q0 50 -20.5 73.5t-65.5 23.5q-47 0 -68 -24t-21 -74v-3z" />
    <glyph glyph-name="p" unicode="p" horiz-adv-x="543" 
d="M321 -12q-34 0 -74.5 9t-67.5 25l-2 107q24 -13 51 -20t50 -7q41 0 60 26t19 75v103q0 41 -14.5 61t-46.5 20q-30 0 -59.5 -18t-64.5 -51l-8 95q26 25 54.5 46.5t60.5 34.5t72 13q73 0 109 -42t36 -131v-143q0 -106 -45.5 -154.5t-129.5 -48.5zM69 -185q-13 0 -13 13v544
q0 28 -1.5 56t-4.5 53q-1 14 13 14h99q11 0 14 -11q2 -9 4 -21.5t3.5 -26t0.5 -23.5l11 -59v-526q0 -13 -13 -13h-113z" />
    <glyph glyph-name="thorn" unicode="&#xfe;" horiz-adv-x="543" 
d="M69 -185q-13 0 -13 13v842q0 13 13 13h113q13 0 13 -13v-228q35 30 72.5 47.5t83.5 17.5q73 0 109 -42t36 -131v-143q0 -106 -45.5 -154.5t-129.5 -48.5q-29 0 -63.5 7t-62.5 19v-186q0 -13 -13 -13h-113zM278 102q41 0 60 26t19 75v103q0 41 -14.5 61t-46.5 20
q-24 0 -47.5 -11.5t-53.5 -36.5v-219q20 -9 42 -13.5t41 -4.5z" />
    <glyph glyph-name="q" unicode="q" horiz-adv-x="547" 
d="M365 -185q-13 0 -13 13v556q-18 4 -38.5 6.5t-40.5 2.5q-45 0 -66.5 -24.5t-21.5 -76.5v-103q0 -43 14.5 -62t46.5 -19q28 0 56 14t64 44l-2 -102q-41 -39 -84 -57.5t-90 -18.5q-73 0 -108.5 42.5t-35.5 129.5v144q0 103 53 153t164 50q44 0 80.5 -5t72 -10t75.5 -8v-656
q0 -13 -13 -13h-113z" />
    <glyph glyph-name="r" unicode="r" horiz-adv-x="371" 
d="M69 0q-13 0 -13 13v356q0 31 -1.5 58.5t-4.5 53.5q-2 14 13 14h99q11 0 14 -11q4 -17 6 -39t3 -41l10 -61v-330q0 -13 -13 -13h-113zM185 289l-8 116q20 29 46 52t52.5 36.5t49.5 13.5q16 0 26 -4q10 -3 11 -14q0 -26 -0.5 -57t-3.5 -58q-2 -15 -15 -12q-6 2 -15 3t-17 1
q-21 0 -43 -9t-43.5 -25.5t-39.5 -42.5z" />
    <glyph glyph-name="racute" unicode="&#x155;" horiz-adv-x="371" 
d="M69 0q-13 0 -13 13v356q0 31 -1.5 58.5t-4.5 53.5q-2 14 13 14h99q11 0 14 -11q4 -17 6 -39t3 -41l10 -61v-330q0 -13 -13 -13h-113zM185 289l-8 116q20 29 46 52t52.5 36.5t49.5 13.5q16 0 26 -4q10 -3 11 -14q0 -26 -0.5 -57t-3.5 -58q-2 -15 -15 -12q-6 2 -15 3t-17 1
q-21 0 -43 -9t-43.5 -25.5t-39.5 -42.5zM136 557q-14 0 -7 14l69 127q5 10 15 10h103q7 0 8.5 -5t-2.5 -10l-94 -128q-5 -8 -15 -8h-77z" />
    <glyph glyph-name="rcaron" unicode="&#x159;" horiz-adv-x="371" 
d="M69 0q-13 0 -13 13v356q0 31 -1.5 58.5t-4.5 53.5q-2 14 13 14h99q11 0 14 -11q4 -17 6 -39t3 -41l10 -61v-330q0 -13 -13 -13h-113zM185 289l-8 116q20 29 46 52t52.5 36.5t49.5 13.5q16 0 26 -4q10 -3 11 -14q0 -26 -0.5 -57t-3.5 -58q-2 -15 -15 -12q-6 2 -15 3t-17 1
q-21 0 -43 -9t-43.5 -25.5t-39.5 -42.5zM201 549l-121 71q-8 4 -8 14v71q0 15 14 7l123 -62l123 62q15 8 15 -7v-71q0 -10 -8 -14l-121 -71q-9 -6 -17 0z" />
    <glyph glyph-name="uni0157" unicode="&#x157;" horiz-adv-x="371" 
d="M69 0q-13 0 -13 13v356q0 31 -1.5 58.5t-4.5 53.5q-2 14 13 14h99q11 0 14 -11q4 -17 6 -39t3 -41l10 -61v-330q0 -13 -13 -13h-113zM185 289l-8 116q20 29 46 52t52.5 36.5t49.5 13.5q16 0 26 -4q10 -3 11 -14q0 -26 -0.5 -57t-3.5 -58q-2 -15 -15 -12q-6 2 -15 3t-17 1
q-21 0 -43 -9t-43.5 -25.5t-39.5 -42.5zM91 -263q-11 0 -8 11l13 70q-15 5 -23 18.5t-8 32.5v18q0 28 16.5 42.5t46.5 14.5q33 0 49 -14.5t16 -42.5v-20q0 -13 -2 -25.5t-7 -27.5l-23 -68q-3 -9 -13 -9h-57z" />
    <glyph glyph-name="s" unicode="s" horiz-adv-x="475" 
d="M236 -12q-105 0 -152.5 39t-42.5 122q1 12 13 12h106q12 0 12 -12q0 -31 15.5 -46t48.5 -15q35 0 52 11t17 34q0 18 -12 29.5t-40 23.5l-115 49q-50 21 -72 51.5t-22 79.5q0 71 46.5 106t144.5 35q101 0 149.5 -36.5t48.5 -108.5q0 -13 -13 -13h-105q-13 0 -13 16
q0 21 -15.5 31.5t-45.5 10.5t-44 -10t-14 -31q0 -15 10 -24t38 -21l114 -48q52 -21 75.5 -52t23.5 -82q0 -75 -53 -113t-155 -38z" />
    <glyph glyph-name="sacute" unicode="&#x15b;" horiz-adv-x="475" 
d="M236 -12q-105 0 -152.5 39t-42.5 122q1 12 13 12h106q12 0 12 -12q0 -31 15.5 -46t48.5 -15q35 0 52 11t17 34q0 18 -12 29.5t-40 23.5l-115 49q-50 21 -72 51.5t-22 79.5q0 71 46.5 106t144.5 35q101 0 149.5 -36.5t48.5 -108.5q0 -13 -13 -13h-105q-13 0 -13 16
q0 21 -15.5 31.5t-45.5 10.5t-44 -10t-14 -31q0 -15 10 -24t38 -21l114 -48q52 -21 75.5 -52t23.5 -82q0 -75 -53 -113t-155 -38zM163 557q-14 0 -7 14l69 127q5 10 15 10h103q7 0 8.5 -5t-2.5 -10l-94 -128q-5 -8 -15 -8h-77z" />
    <glyph glyph-name="scaron" unicode="&#x161;" horiz-adv-x="475" 
d="M236 -12q-105 0 -152.5 39t-42.5 122q1 12 13 12h106q12 0 12 -12q0 -31 15.5 -46t48.5 -15q35 0 52 11t17 34q0 18 -12 29.5t-40 23.5l-115 49q-50 21 -72 51.5t-22 79.5q0 71 46.5 106t144.5 35q101 0 149.5 -36.5t48.5 -108.5q0 -13 -13 -13h-105q-13 0 -13 16
q0 21 -15.5 31.5t-45.5 10.5t-44 -10t-14 -31q0 -15 10 -24t38 -21l114 -48q52 -21 75.5 -52t23.5 -82q0 -75 -53 -113t-155 -38zM228 549l-121 71q-8 4 -8 14v71q0 15 14 7l123 -62l123 62q15 8 15 -7v-71q0 -10 -8 -14l-121 -71q-9 -6 -17 0z" />
    <glyph glyph-name="scedilla" unicode="&#x15f;" horiz-adv-x="475" 
d="M236 -12q-105 0 -152.5 39t-42.5 122q1 12 13 12h106q12 0 12 -12q0 -31 15.5 -46t48.5 -15q35 0 52 11t17 34q0 18 -12 29.5t-40 23.5l-115 49q-50 21 -72 51.5t-22 79.5q0 71 46.5 106t144.5 35q101 0 149.5 -36.5t48.5 -108.5q0 -13 -13 -13h-105q-13 0 -13 16
q0 21 -15.5 31.5t-45.5 10.5t-44 -10t-14 -31q0 -15 10 -24t38 -21l114 -48q52 -21 75.5 -52t23.5 -82q0 -75 -53 -113t-155 -38zM232 -197q-17 0 -30 1.5t-25 3.5q-10 1 -10 10v52q0 10 9 9q6 -1 15 -1.5t16 -0.5q20 0 28.5 6.5t8.5 16.5v8q0 12 -7.5 17t-23.5 5h-22
q-7 0 -7 6q0 5 0.5 11.5t1.5 10.5l25 80q3 8 12 8h72q10 0 6 -13l-22 -65h8q28 0 44 -17t16 -46v-17q0 -40 -27.5 -62.5t-87.5 -22.5z" />
    <glyph glyph-name="uni0219" unicode="&#x219;" horiz-adv-x="475" 
d="M236 -12q-105 0 -152.5 39t-42.5 122q1 12 13 12h106q12 0 12 -12q0 -31 15.5 -46t48.5 -15q35 0 52 11t17 34q0 18 -12 29.5t-40 23.5l-115 49q-50 21 -72 51.5t-22 79.5q0 71 46.5 106t144.5 35q101 0 149.5 -36.5t48.5 -108.5q0 -13 -13 -13h-105q-13 0 -13 16
q0 21 -15.5 31.5t-45.5 10.5t-44 -10t-14 -31q0 -15 10 -24t38 -21l114 -48q52 -21 75.5 -52t23.5 -82q0 -75 -53 -113t-155 -38zM219 -263q-11 0 -8 11l13 70q-15 5 -23 18.5t-8 32.5v18q0 28 16.5 42.5t46.5 14.5q33 0 49 -14.5t16 -42.5v-20q0 -13 -2 -25.5t-7 -27.5
l-23 -68q-3 -9 -13 -9h-57z" />
    <glyph glyph-name="germandbls" unicode="&#xdf;" horiz-adv-x="577" 
d="M379 -12q-59 0 -94 14t-49 44.5t-11 76.5q1 13 14 13h86q12 0 12 -14q0 -17 9.5 -25.5t28.5 -8.5q23 0 34 11t11 35q0 28 -16 48.5t-39 37.5t-46.5 35.5t-39.5 41.5t-16 56q0 29 11.5 49t25.5 37t25 36.5t11 46.5q0 31 -16.5 47t-49.5 16q-39 0 -57 -24.5t-18 -72.5v-475
q0 -13 -13 -13h-113q-13 0 -13 13v475q0 108 54.5 157.5t164.5 49.5q61 0 105.5 -19t69 -53.5t24.5 -80.5q0 -38 -10 -62t-23.5 -39.5t-24 -29t-10.5 -30.5q0 -20 15 -36.5t38 -35t45 -41.5t37.5 -54t15.5 -74q0 -76 -43.5 -114t-134.5 -38z" />
    <glyph glyph-name="t" unicode="t" horiz-adv-x="401" 
d="M266 -12q-62 0 -99.5 18.5t-54 58t-16.5 103.5v211h-72q-13 0 -13 13v90q0 13 13 13h76l15 119q3 13 14 13h93q13 0 13 -13v-119h129q13 0 13 -13v-90q0 -13 -13 -13h-129v-202q0 -36 14 -53t45 -17q17 0 34.5 3.5t34.5 9.5q15 6 15 -10v-91q0 -10 -10 -15
q-20 -7 -47 -11.5t-55 -4.5z" />
    <glyph glyph-name="tbar" unicode="&#x167;" horiz-adv-x="401" 
d="M34 229q-13 0 -13 13v70q0 12 13 12h62h139h114q12 0 12 -12v-70q0 -13 -12 -13h-315zM266 -12q-62 0 -99.5 18.5t-54 58t-16.5 103.5v211h-72q-13 0 -13 13v90q0 13 13 13h76l15 119q3 13 14 13h93q13 0 13 -13v-119h129q13 0 13 -13v-90q0 -13 -13 -13h-129v-202
q0 -36 14 -53t45 -17q17 0 34.5 3.5t34.5 9.5q15 6 15 -10v-91q0 -10 -10 -15q-20 -7 -47 -11.5t-55 -4.5z" />
    <glyph glyph-name="tcaron" unicode="&#x165;" horiz-adv-x="424" 
d="M266 -12q-62 0 -99.5 18.5t-54 58t-16.5 103.5v211h-72q-13 0 -13 13v90q0 13 13 13h76l15 119q3 13 14 13h93q13 0 13 -13v-119h129q13 0 13 -13v-90q0 -13 -13 -13h-129v-202q0 -36 14 -53t45 -17q17 0 34.5 3.5t34.5 9.5q15 6 15 -10v-91q0 -10 -10 -15
q-20 -7 -47 -11.5t-55 -4.5zM300 526q-9 0 -8 10l12 53q-12 5 -20 14.5t-8 27.5v19q0 22 15 34t43 12t42.5 -11.5t14.5 -33.5v-21q0 -11 -1.5 -22t-6.5 -23l-19 -51q-3 -8 -11 -8h-53z" />
    <glyph glyph-name="uni0163" unicode="&#x163;" horiz-adv-x="401" 
d="M266 -12q-62 0 -99.5 18.5t-54 58t-16.5 103.5v211h-72q-13 0 -13 13v90q0 13 13 13h76l15 119q3 13 14 13h93q13 0 13 -13v-119h129q13 0 13 -13v-90q0 -13 -13 -13h-129v-202q0 -36 14 -53t45 -17q17 0 34.5 3.5t34.5 9.5q15 6 15 -10v-91q0 -10 -10 -15
q-20 -7 -47 -11.5t-55 -4.5zM230 -197q-17 0 -30 1.5t-25 3.5q-10 1 -10 10v52q0 10 9 9q6 -1 15 -1.5t16 -0.5q20 0 28.5 6.5t8.5 16.5v8q0 12 -7.5 17t-23.5 5h-22q-7 0 -7 6q0 5 0.5 11.5t1.5 10.5l25 80q3 8 12 8h72q10 0 6 -13l-22 -65h8q28 0 44 -17t16 -46v-17
q0 -40 -27.5 -62.5t-87.5 -22.5z" />
    <glyph glyph-name="uni021B" unicode="&#x21b;" horiz-adv-x="401" 
d="M266 -12q-62 0 -99.5 18.5t-54 58t-16.5 103.5v211h-72q-13 0 -13 13v90q0 13 13 13h76l15 119q3 13 14 13h93q13 0 13 -13v-119h129q13 0 13 -13v-90q0 -13 -13 -13h-129v-202q0 -36 14 -53t45 -17q17 0 34.5 3.5t34.5 9.5q15 6 15 -10v-91q0 -10 -10 -15
q-20 -7 -47 -11.5t-55 -4.5zM216 -263q-11 0 -8 11l13 70q-15 5 -23 18.5t-8 32.5v18q0 28 16.5 42.5t46.5 14.5q33 0 49 -14.5t16 -42.5v-20q0 -13 -2 -25.5t-7 -27.5l-23 -68q-3 -9 -13 -9h-57z" />
    <glyph glyph-name="u" unicode="u" horiz-adv-x="548" 
d="M193 -12q-68 0 -102.5 40.5t-34.5 123.5v330q0 13 13 13h113q13 0 13 -13v-302q0 -36 13 -54t40 -18q31 0 61.5 20t63.5 54l8 -93q-26 -26 -54.5 -49.5t-61.5 -37.5t-72 -14zM388 0q-12 0 -14 11q-4 17 -6 37t-4 41l-11 56v337q0 13 13 13h113q13 0 13 -13v-355
q0 -30 1.5 -58.5t4.5 -55.5q2 -13 -13 -13h-97z" />
    <glyph glyph-name="uacute" unicode="&#xfa;" horiz-adv-x="548" 
d="M193 -12q-68 0 -102.5 40.5t-34.5 123.5v330q0 13 13 13h113q13 0 13 -13v-302q0 -36 13 -54t40 -18q31 0 61.5 20t63.5 54l8 -93q-26 -26 -54.5 -49.5t-61.5 -37.5t-72 -14zM388 0q-12 0 -14 11q-4 17 -6 37t-4 41l-11 56v337q0 13 13 13h113q13 0 13 -13v-355
q0 -30 1.5 -58.5t4.5 -55.5q2 -13 -13 -13h-97zM201 557q-14 0 -7 14l69 127q5 10 15 10h103q7 0 8.5 -5t-2.5 -10l-94 -128q-5 -8 -15 -8h-77z" />
    <glyph glyph-name="ucircumflex" unicode="&#xfb;" horiz-adv-x="548" 
d="M193 -12q-68 0 -102.5 40.5t-34.5 123.5v330q0 13 13 13h113q13 0 13 -13v-302q0 -36 13 -54t40 -18q31 0 61.5 20t63.5 54l8 -93q-26 -26 -54.5 -49.5t-61.5 -37.5t-72 -14zM388 0q-12 0 -14 11q-4 17 -6 37t-4 41l-11 56v337q0 13 13 13h113q13 0 13 -13v-355
q0 -30 1.5 -58.5t4.5 -55.5q2 -13 -13 -13h-97zM151 548q-14 -7 -14 7v71q0 10 7 14l122 72q8 5 17 0l121 -72q8 -4 8 -14v-71q0 -14 -15 -7l-123 62z" />
    <glyph glyph-name="udieresis" unicode="&#xfc;" horiz-adv-x="548" 
d="M193 -12q-68 0 -102.5 40.5t-34.5 123.5v330q0 13 13 13h113q13 0 13 -13v-302q0 -36 13 -54t40 -18q31 0 61.5 20t63.5 54l8 -93q-26 -26 -54.5 -49.5t-61.5 -37.5t-72 -14zM388 0q-12 0 -14 11q-4 17 -6 37t-4 41l-11 56v337q0 13 13 13h113q13 0 13 -13v-355
q0 -30 1.5 -58.5t4.5 -55.5q2 -13 -13 -13h-97zM174 560q-34 0 -52 17.5t-18 46.5v17q0 31 18 48t52 17q36 0 53.5 -17t17.5 -48v-17q0 -29 -17.5 -46.5t-53.5 -17.5zM373 560q-34 0 -52 17.5t-18 46.5v17q0 31 18 48t52 17q36 0 53.5 -17t17.5 -48v-17q0 -29 -17.5 -46.5
t-53.5 -17.5z" />
    <glyph glyph-name="ugrave" unicode="&#xf9;" horiz-adv-x="548" 
d="M193 -12q-68 0 -102.5 40.5t-34.5 123.5v330q0 13 13 13h113q13 0 13 -13v-302q0 -36 13 -54t40 -18q31 0 61.5 20t63.5 54l8 -93q-26 -26 -54.5 -49.5t-61.5 -37.5t-72 -14zM388 0q-12 0 -14 11q-4 17 -6 37t-4 41l-11 56v337q0 13 13 13h113q13 0 13 -13v-355
q0 -30 1.5 -58.5t4.5 -55.5q2 -13 -13 -13h-97zM268 557q-9 0 -15 8l-93 128q-4 5 -2.5 10t7.5 5h103q11 0 16 -10l69 -127q7 -14 -7 -14h-78z" />
    <glyph glyph-name="uhungarumlaut" unicode="&#x171;" horiz-adv-x="548" 
d="M193 -12q-68 0 -102.5 40.5t-34.5 123.5v330q0 13 13 13h113q13 0 13 -13v-302q0 -36 13 -54t40 -18q31 0 61.5 20t63.5 54l8 -93q-26 -26 -54.5 -49.5t-61.5 -37.5t-72 -14zM388 0q-12 0 -14 11q-4 17 -6 37t-4 41l-11 56v337q0 13 13 13h113q13 0 13 -13v-355
q0 -30 1.5 -58.5t4.5 -55.5q2 -13 -13 -13h-97zM140 557q-14 0 -8 13l57 137q4 10 15 10h97q16 0 8 -15l-76 -136q-5 -9 -15 -9h-78zM310 557q-14 0 -8 13l57 137q4 10 15 10h98q15 0 7 -15l-76 -136q-5 -9 -15 -9h-78z" />
    <glyph glyph-name="umacron" unicode="&#x16b;" horiz-adv-x="548" 
d="M193 -12q-68 0 -102.5 40.5t-34.5 123.5v330q0 13 13 13h113q13 0 13 -13v-302q0 -36 13 -54t40 -18q31 0 61.5 20t63.5 54l8 -93q-26 -26 -54.5 -49.5t-61.5 -37.5t-72 -14zM388 0q-12 0 -14 11q-4 17 -6 37t-4 41l-11 56v337q0 13 13 13h113q13 0 13 -13v-355
q0 -30 1.5 -58.5t4.5 -55.5q2 -13 -13 -13h-97zM165 570q-13 0 -13 13v75q0 12 13 12h219q13 0 13 -12v-75q0 -13 -13 -13h-219z" />
    <glyph glyph-name="uogonek" unicode="&#x173;" horiz-adv-x="548" 
d="M193 -12q-68 0 -102.5 40.5t-34.5 123.5v330q0 13 13 13h113q13 0 13 -13v-302q0 -36 13 -54t40 -18q31 0 61.5 20t63.5 54l8 -93q-26 -26 -54.5 -49.5t-61.5 -37.5t-72 -14zM388 0q-12 0 -14 11q-4 17 -6 37t-4 41l-11 56v337q0 13 13 13h113q13 0 13 -13v-355
q0 -30 1.5 -58.5t4.5 -55.5q2 -13 -13 -13h-97zM434 -197q-51 0 -80 23.5t-29 60.5v11q0 46 38.5 79.5t109.5 51.5l16 -15l-2 -11q-27 -11 -41.5 -28.5t-14.5 -38.5v-6q0 -26 33 -26q8 0 15 0.5t15 1.5q10 2 10 -9v-75q0 -6 -1.5 -8t-8.5 -4q-14 -4 -30 -5.5t-30 -1.5z" />
    <glyph glyph-name="uring" unicode="&#x16f;" horiz-adv-x="548" 
d="M193 -12q-68 0 -102.5 40.5t-34.5 123.5v330q0 13 13 13h113q13 0 13 -13v-302q0 -36 13 -54t40 -18q31 0 61.5 20t63.5 54l8 -93q-26 -26 -54.5 -49.5t-61.5 -37.5t-72 -14zM388 0q-12 0 -14 11q-4 17 -6 37t-4 41l-11 56v337q0 13 13 13h113q13 0 13 -13v-355
q0 -30 1.5 -58.5t4.5 -55.5q2 -13 -13 -13h-97zM274 554q-59 0 -93 29t-34 84t33.5 83.5t93.5 28.5t94 -28.5t34 -83.5t-33.5 -84t-94.5 -29zM274 627q21 0 30 11t9 31q0 19 -9 30t-30 11q-19 0 -28.5 -11t-9.5 -30q0 -20 9.5 -31t28.5 -11z" />
    <glyph glyph-name="v" unicode="v" horiz-adv-x="524" 
d="M190 0q-11 0 -15 10l-158 470q-4 15 11 15h122q12 0 15 -11l63 -228q9 -33 17 -66t15 -67h3q7 34 15.5 67t18.5 67l63 227q3 11 15 11h122q14 0 10 -15l-159 -470q-4 -10 -15 -10h-143z" />
    <glyph glyph-name="w" unicode="w" horiz-adv-x="757" 
d="M185 0q-11 0 -15 11l-148 469q-4 15 10 15h120q11 0 14 -12l55 -223q8 -33 14.5 -65.5t12.5 -65.5h3q9 32 18 63.5t17 62.5l34 118l-23 96q-3 15 11 15h104q12 0 15 -11l51 -215q7 -32 13.5 -64t14.5 -65h3q5 34 12 67.5t15 65.5l55 221q3 12 14 12h120q14 0 10 -15
l-149 -469q-4 -11 -14 -11h-123q-11 0 -14 11l-22 75q-9 32 -17 67.5t-15 83.5h-3q-7 -48 -16 -83t-18 -67l-22 -76q-3 -11 -15 -11h-122z" />
    <glyph glyph-name="wacute" unicode="&#x1e83;" horiz-adv-x="757" 
d="M185 0q-11 0 -15 11l-148 469q-4 15 10 15h120q11 0 14 -12l55 -223q8 -33 14.5 -65.5t12.5 -65.5h3q9 32 18 63.5t17 62.5l34 118l-23 96q-3 15 11 15h104q12 0 15 -11l51 -215q7 -32 13.5 -64t14.5 -65h3q5 34 12 67.5t15 65.5l55 221q3 12 14 12h120q14 0 10 -15
l-149 -469q-4 -11 -14 -11h-123q-11 0 -14 11l-22 75q-9 32 -17 67.5t-15 83.5h-3q-7 -48 -16 -83t-18 -67l-22 -76q-3 -11 -15 -11h-122zM305 557q-14 0 -7 14l69 127q5 10 15 10h103q7 0 8.5 -5t-2.5 -10l-94 -128q-5 -8 -15 -8h-77z" />
    <glyph glyph-name="wcircumflex" unicode="&#x175;" horiz-adv-x="757" 
d="M185 0q-11 0 -15 11l-148 469q-4 15 10 15h120q11 0 14 -12l55 -223q8 -33 14.5 -65.5t12.5 -65.5h3q9 32 18 63.5t17 62.5l34 118l-23 96q-3 15 11 15h104q12 0 15 -11l51 -215q7 -32 13.5 -64t14.5 -65h3q5 34 12 67.5t15 65.5l55 221q3 12 14 12h120q14 0 10 -15
l-149 -469q-4 -11 -14 -11h-123q-11 0 -14 11l-22 75q-9 32 -17 67.5t-15 83.5h-3q-7 -48 -16 -83t-18 -67l-22 -76q-3 -11 -15 -11h-122zM255 548q-14 -7 -14 7v71q0 10 7 14l122 72q8 5 17 0l121 -72q8 -4 8 -14v-71q0 -14 -15 -7l-123 62z" />
    <glyph glyph-name="wdieresis" unicode="&#x1e85;" horiz-adv-x="757" 
d="M185 0q-11 0 -15 11l-148 469q-4 15 10 15h120q11 0 14 -12l55 -223q8 -33 14.5 -65.5t12.5 -65.5h3q9 32 18 63.5t17 62.5l34 118l-23 96q-3 15 11 15h104q12 0 15 -11l51 -215q7 -32 13.5 -64t14.5 -65h3q5 34 12 67.5t15 65.5l55 221q3 12 14 12h120q14 0 10 -15
l-149 -469q-4 -11 -14 -11h-123q-11 0 -14 11l-22 75q-9 32 -17 67.5t-15 83.5h-3q-7 -48 -16 -83t-18 -67l-22 -76q-3 -11 -15 -11h-122zM278 560q-34 0 -52 17.5t-18 46.5v17q0 31 18 48t52 17q36 0 53.5 -17t17.5 -48v-17q0 -29 -17.5 -46.5t-53.5 -17.5zM477 560
q-34 0 -52 17.5t-18 46.5v17q0 31 18 48t52 17q36 0 53.5 -17t17.5 -48v-17q0 -29 -17.5 -46.5t-53.5 -17.5z" />
    <glyph glyph-name="wgrave" unicode="&#x1e81;" horiz-adv-x="757" 
d="M185 0q-11 0 -15 11l-148 469q-4 15 10 15h120q11 0 14 -12l55 -223q8 -33 14.5 -65.5t12.5 -65.5h3q9 32 18 63.5t17 62.5l34 118l-23 96q-3 15 11 15h104q12 0 15 -11l51 -215q7 -32 13.5 -64t14.5 -65h3q5 34 12 67.5t15 65.5l55 221q3 12 14 12h120q14 0 10 -15
l-149 -469q-4 -11 -14 -11h-123q-11 0 -14 11l-22 75q-9 32 -17 67.5t-15 83.5h-3q-7 -48 -16 -83t-18 -67l-22 -76q-3 -11 -15 -11h-122zM372 557q-9 0 -15 8l-93 128q-4 5 -2.5 10t7.5 5h103q11 0 16 -10l69 -127q7 -14 -7 -14h-78z" />
    <glyph glyph-name="x" unicode="x" horiz-adv-x="521" 
d="M19 0q-8 0 -10.5 4.5t1.5 10.5l166 239l-155 225q-4 7 -1.5 11.5t9.5 4.5h131q11 0 16 -8l46 -75q10 -17 19.5 -36t18.5 -36h2q10 19 20.5 37.5t20.5 37.5l43 71q5 9 16 9h128q8 0 10.5 -4.5t-2.5 -11.5l-154 -223l167 -241q5 -6 2 -10.5t-10 -4.5h-131q-11 0 -16 8
l-44 71q-13 21 -26 43.5t-26 44.5h-1q-12 -21 -24.5 -43.5t-25.5 -43.5l-45 -72q-4 -8 -15 -8h-130z" />
    <glyph glyph-name="y" unicode="y" horiz-adv-x="521" 
d="M142 -185q-16 0 -10 15l65 173l-180 477q-6 15 9 15h124q11 0 14 -11l61 -182q10 -32 19 -67t17 -72h3q8 37 17 71.5t19 66.5l60 183q3 11 15 11h121q16 0 10 -15l-240 -655q-3 -10 -14 -10h-110z" />
    <glyph glyph-name="yacute" unicode="&#xfd;" horiz-adv-x="521" 
d="M142 -185q-16 0 -10 15l65 173l-180 477q-6 15 9 15h124q11 0 14 -11l61 -182q10 -32 19 -67t17 -72h3q8 37 17 71.5t19 66.5l60 183q3 11 15 11h121q16 0 10 -15l-240 -655q-3 -10 -14 -10h-110zM188 557q-14 0 -7 14l69 127q5 10 15 10h103q7 0 8.5 -5t-2.5 -10
l-94 -128q-5 -8 -15 -8h-77z" />
    <glyph glyph-name="ycircumflex" unicode="&#x177;" horiz-adv-x="521" 
d="M142 -185q-16 0 -10 15l65 173l-180 477q-6 15 9 15h124q11 0 14 -11l61 -182q10 -32 19 -67t17 -72h3q8 37 17 71.5t19 66.5l60 183q3 11 15 11h121q16 0 10 -15l-240 -655q-3 -10 -14 -10h-110zM139 548q-14 -7 -14 7v71q0 10 7 14l122 72q8 5 17 0l121 -72q8 -4 8 -14
v-71q0 -14 -15 -7l-123 62z" />
    <glyph glyph-name="ydieresis" unicode="&#xff;" horiz-adv-x="521" 
d="M142 -185q-16 0 -10 15l65 173l-180 477q-6 15 9 15h124q11 0 14 -11l61 -182q10 -32 19 -67t17 -72h3q8 37 17 71.5t19 66.5l60 183q3 11 15 11h121q16 0 10 -15l-240 -655q-3 -10 -14 -10h-110zM161 560q-34 0 -52 17.5t-18 46.5v17q0 31 18 48t52 17q36 0 53.5 -17
t17.5 -48v-17q0 -29 -17.5 -46.5t-53.5 -17.5zM360 560q-34 0 -52 17.5t-18 46.5v17q0 31 18 48t52 17q36 0 53.5 -17t17.5 -48v-17q0 -29 -17.5 -46.5t-53.5 -17.5z" />
    <glyph glyph-name="ygrave" unicode="&#x1ef3;" horiz-adv-x="521" 
d="M142 -185q-16 0 -10 15l65 173l-180 477q-6 15 9 15h124q11 0 14 -11l61 -182q10 -32 19 -67t17 -72h3q8 37 17 71.5t19 66.5l60 183q3 11 15 11h121q16 0 10 -15l-240 -655q-3 -10 -14 -10h-110zM256 557q-9 0 -15 8l-93 128q-4 5 -2.5 10t7.5 5h103q11 0 16 -10
l69 -127q7 -14 -7 -14h-78z" />
    <glyph glyph-name="z" unicode="z" horiz-adv-x="478" 
d="M28 0q-13 0 -13 12v4q0 9 4 17l174 256q15 22 30.5 45.5t30.5 43.5v2q-25 0 -49.5 -0.5t-51.5 -0.5h-100q-12 0 -12 13v90q0 13 12 13h395q14 0 14 -13v-3q0 -5 -2 -10t-8 -15l-163 -241q-16 -23 -33.5 -47t-35.5 -49v-2q29 1 52 1h50h109q13 0 13 -13v-90q0 -13 -13 -13
h-403z" />
    <glyph glyph-name="zacute" unicode="&#x17a;" horiz-adv-x="478" 
d="M28 0q-13 0 -13 12v4q0 9 4 17l174 256q15 22 30.5 45.5t30.5 43.5v2q-25 0 -49.5 -0.5t-51.5 -0.5h-100q-12 0 -12 13v90q0 13 12 13h395q14 0 14 -13v-3q0 -5 -2 -10t-8 -15l-163 -241q-16 -23 -33.5 -47t-35.5 -49v-2q29 1 52 1h50h109q13 0 13 -13v-90q0 -13 -13 -13
h-403zM175 557q-14 0 -7 14l69 127q5 10 15 10h103q7 0 8.5 -5t-2.5 -10l-94 -128q-5 -8 -15 -8h-77z" />
    <glyph glyph-name="zcaron" unicode="&#x17e;" horiz-adv-x="478" 
d="M28 0q-13 0 -13 12v4q0 9 4 17l174 256q15 22 30.5 45.5t30.5 43.5v2q-25 0 -49.5 -0.5t-51.5 -0.5h-100q-12 0 -12 13v90q0 13 12 13h395q14 0 14 -13v-3q0 -5 -2 -10t-8 -15l-163 -241q-16 -23 -33.5 -47t-35.5 -49v-2q29 1 52 1h50h109q13 0 13 -13v-90q0 -13 -13 -13
h-403zM240 549l-121 71q-8 4 -8 14v71q0 15 14 7l123 -62l123 62q15 8 15 -7v-71q0 -10 -8 -14l-121 -71q-9 -6 -17 0z" />
    <glyph glyph-name="zdotaccent" unicode="&#x17c;" horiz-adv-x="478" 
d="M28 0q-13 0 -13 12v4q0 9 4 17l174 256q15 22 30.5 45.5t30.5 43.5v2q-25 0 -49.5 -0.5t-51.5 -0.5h-100q-12 0 -12 13v90q0 13 12 13h395q14 0 14 -13v-3q0 -5 -2 -10t-8 -15l-163 -241q-16 -23 -33.5 -47t-35.5 -49v-2q29 1 52 1h50h109q13 0 13 -13v-90q0 -13 -13 -13
h-403zM248 559q-37 0 -57 19t-20 50v18q0 33 20 51.5t57 18.5q38 0 57.5 -18.5t19.5 -51.5v-18q0 -31 -19.5 -50t-57.5 -19z" />
    <glyph glyph-name="germandbls.calt" horiz-adv-x="673" 
d="M430 -12q-74 0 -115 20t-56 57t-11 89q1 10 4.5 13.5t9.5 3.5l108 -2q13 0 12 -18q-1 -19 12 -29.5t38 -10.5q35 0 52 20.5t17 66.5q0 52 -25 75t-79 23h-70q-13 0 -13 14v43q0 8 4 16l85 160h-194v-516q0 -13 -13 -13h-117q-13 0 -13 13v629q0 13 13 13h507q9 0 12.5 -7
t-1.5 -18l-122 -228q85 -12 127 -63t42 -143q-1 -109 -56.5 -158.5t-157.5 -49.5z" />
    <glyph glyph-name="g.ss02" horiz-adv-x="522" 
d="M253 -197q-124 0 -179 30.5t-55 91.5q0 36 18 66t58 51l105 -31q-22 -9 -32 -23.5t-10 -32.5q0 -27 22.5 -37.5t79.5 -10.5q65 -1 86.5 9.5t21.5 38.5q0 19 -9.5 28.5t-31.5 10.5l-180 11q-42 4 -68 28t-26 68q0 33 15.5 59t53.5 49l83 -33q-19 -7 -26.5 -17t-7.5 -21
q0 -12 8 -17t27 -7l157 -10q76 -5 108.5 -41.5t32.5 -105.5q0 -81 -59.5 -117.5t-191.5 -36.5zM264 160q-102 0 -151.5 42.5t-49.5 129.5q0 89 49.5 132t152.5 43t151.5 -43t48.5 -133q0 -87 -49 -129t-152 -42zM264 263q39 0 54 16t15 54t-15 54.5t-54 16.5
q-38 0 -53.5 -16.5t-15.5 -54.5t15.5 -54t53.5 -16z" />
    <glyph glyph-name="f_j" horiz-adv-x="589" 
d="M402 -191q-9 -6 -15 3l-68 77q-3 5 -3 10.5t6 8.5q23 18 39 42t24.5 57t8.5 77v295h-156v-366q0 -5 -3.5 -9t-9.5 -4h-113q-5 0 -9 4t-4 9v366h-72q-5 0 -9 4t-4 9v90q0 6 4 9.5t9 3.5h72v33q0 85 46 126t140 41q35 0 69 -3.5t54 -8.5q9 -2 9 -13v-84q0 -15 -15 -11
q-21 5 -44 8t-46 3q-38 0 -56 -15t-18 -45v-31h282q13 0 13 -13v-399q0 -68 -13 -118t-42 -87.5t-76 -68.5z" />
    <glyph glyph-name="fi" unicode="&#xfb01;" horiz-adv-x="589" 
d="M112 0q-5 0 -9 4t-4 9v366h-72q-5 0 -9 4t-4 9v90q0 6 4 9.5t9 3.5h72v33q0 85 46 126t140 41q35 0 69 -4t54 -8q9 -2 9 -13v-84q0 -15 -15 -11q-21 5 -44 8t-46 3q-38 0 -56 -14.5t-18 -45.5v-31h282q13 0 13 -13v-469q0 -13 -13 -13h-113q-13 0 -13 13v366h-156v-366
q0 -5 -3.5 -9t-9.5 -4h-113z" />
    <glyph glyph-name="fl" unicode="&#xfb02;" horiz-adv-x="588" 
d="M112 0q-5 0 -9 4t-4 9v366h-72q-5 0 -9 4t-4 9v90q0 6 4 9.5t9 3.5h72v33q0 87 47 127t139 40q39 0 73.5 -5t55.5 -10l105 3q13 0 13 -13v-657q0 -13 -13 -13h-113q-13 0 -13 13v564q-19 4 -40 6.5t-41 2.5q-38 0 -56 -14.5t-18 -45.5v-31h72q5 0 9 -3.5t4 -9.5v-90
q0 -5 -4 -9t-9 -4h-72v-366q0 -5 -3.5 -9t-9.5 -4h-113z" />
    <glyph glyph-name="a.sc" horiz-adv-x="551" 
d="M10 0q-14 0 -9 13l185 522q4 9 14 9h149q10 0 13 -9l188 -522q4 -13 -9 -13h-125q-9 0 -13 9l-93 291q-11 35 -20 67t-15 64h-3q-6 -32 -14.5 -63.5t-19.5 -68.5l-90 -289q-3 -10 -14 -10h-124zM155 97l23 108h190l24 -108h-237z" />
    <glyph glyph-name="aacute.sc" horiz-adv-x="551" 
d="M10 0q-14 0 -9 13l185 522q4 9 14 9h149q10 0 13 -9l188 -522q4 -13 -9 -13h-125q-9 0 -13 9l-93 291q-11 35 -20 67t-15 64h-3q-6 -32 -14.5 -63.5t-19.5 -68.5l-90 -289q-3 -10 -14 -10h-124zM155 97l23 108h190l24 -108h-237zM204 596q-17 0 -8 15l59 109q5 9 16 9h92
q8 0 9.5 -4.5t-2.5 -10.5l-84 -110q-5 -8 -15 -8h-67z" />
    <glyph glyph-name="abreve.sc" horiz-adv-x="551" 
d="M10 0q-14 0 -9 13l185 522q4 9 14 9h149q10 0 13 -9l188 -522q4 -13 -9 -13h-125q-9 0 -13 9l-93 291q-11 35 -20 67t-15 64h-3q-6 -32 -14.5 -63.5t-19.5 -68.5l-90 -289q-3 -10 -14 -10h-124zM155 97l23 108h190l24 -108h-237zM274 600q-42 0 -74.5 14t-44.5 24
q-8 6 -8 16v72q0 8 4 10.5t10 -1.5q18 -13 49 -26.5t64 -13.5t64 13.5t49 26.5q6 4 10 1.5t4 -10.5v-72q0 -10 -8 -16q-12 -10 -44 -24t-75 -14z" />
    <glyph glyph-name="acircumflex.sc" horiz-adv-x="551" 
d="M10 0q-14 0 -9 13l185 522q4 9 14 9h149q10 0 13 -9l188 -522q4 -13 -9 -13h-125q-9 0 -13 9l-93 291q-11 35 -20 67t-15 64h-3q-6 -32 -14.5 -63.5t-19.5 -68.5l-90 -289q-3 -10 -14 -10h-124zM155 97l23 108h190l24 -108h-237zM161 597q-14 -6 -14 7v68q0 10 9 14
l110 52q9 5 18 0l110 -52q9 -4 9 -14v-68q0 -13 -15 -7l-113 44z" />
    <glyph glyph-name="adieresis.sc" horiz-adv-x="551" 
d="M10 0q-14 0 -9 13l185 522q4 9 14 9h149q10 0 13 -9l188 -522q4 -13 -9 -13h-125q-9 0 -13 9l-93 291q-11 35 -20 67t-15 64h-3q-6 -32 -14.5 -63.5t-19.5 -68.5l-90 -289q-3 -10 -14 -10h-124zM155 97l23 108h190l24 -108h-237zM174 607q-34 0 -52 17.5t-18 46.5v17
q0 31 18 48t52 17q36 0 53.5 -17t17.5 -48v-17q0 -29 -17.5 -46.5t-53.5 -17.5zM373 607q-34 0 -52 17.5t-18 46.5v17q0 31 18 48t52 17q35 0 53 -17t18 -48v-17q0 -29 -18 -46.5t-53 -17.5z" />
    <glyph glyph-name="agrave.sc" horiz-adv-x="551" 
d="M10 0q-14 0 -9 13l185 522q4 9 14 9h149q10 0 13 -9l188 -522q4 -13 -9 -13h-125q-9 0 -13 9l-93 291q-11 35 -20 67t-15 64h-3q-6 -32 -14.5 -63.5t-19.5 -68.5l-90 -289q-3 -10 -14 -10h-124zM155 97l23 108h190l24 -108h-237zM273 596q-11 0 -16 8l-84 110
q-5 7 -3 11.5t10 4.5h92q11 0 16 -10l60 -109q8 -15 -8 -15h-67z" />
    <glyph glyph-name="amacron.sc" horiz-adv-x="551" 
d="M10 0q-14 0 -9 13l185 522q4 9 14 9h149q10 0 13 -9l188 -522q4 -13 -9 -13h-125q-9 0 -13 9l-93 291q-11 35 -20 67t-15 64h-3q-6 -32 -14.5 -63.5t-19.5 -68.5l-90 -289q-3 -10 -14 -10h-124zM155 97l23 108h190l24 -108h-237zM172 600q-13 0 -13 13v71q0 13 13 13h204
q13 0 13 -13v-71q0 -13 -13 -13h-204z" />
    <glyph glyph-name="aogonek.sc" horiz-adv-x="551" 
d="M10 0q-14 0 -9 13l185 522q4 9 14 9h149q10 0 13 -9l188 -522q4 -13 -9 -13h-125q-9 0 -13 9l-93 291q-11 35 -20 67t-15 64h-3q-6 -32 -14.5 -63.5t-19.5 -68.5l-90 -289q-3 -10 -14 -10h-124zM155 97l23 108h190l24 -108h-237zM474 -198q-51 0 -80 23.5t-29 60.5v11
q0 46 38.5 79.5t109.5 51.5l16 -15l-2 -11q-27 -11 -41.5 -28.5t-14.5 -38.5v-6q0 -26 33 -26q8 0 15 0.5t15 1.5q10 2 10 -9v-75q0 -6 -1.5 -8t-8.5 -4q-14 -4 -30 -5.5t-30 -1.5z" />
    <glyph glyph-name="aring.sc" horiz-adv-x="551" 
d="M10 0q-14 0 -9 13l177 497q-12 13 -18.5 30t-6.5 40q0 54 33.5 80t89.5 26q55 0 88.5 -26t33.5 -80q0 -23 -7 -40.5t-20 -30.5l179 -496q4 -13 -9 -13h-125q-9 0 -13 9l-28 88h-200l-27 -87q-3 -10 -14 -10h-124zM207 205h135l-32 95q-11 35 -20 67.5t-15 67.5h-3
q-6 -35 -14.5 -67t-19.5 -69zM276 541q18 0 26.5 10t8.5 30q0 19 -8.5 29t-26.5 10t-27 -10t-9 -29q0 -20 9 -30t27 -10z" />
    <glyph glyph-name="atilde.sc" horiz-adv-x="551" 
d="M10 0q-14 0 -9 13l185 522q4 9 14 9h149q10 0 13 -9l188 -522q4 -13 -9 -13h-125q-9 0 -13 9l-93 291q-11 35 -20 67t-15 64h-3q-6 -32 -14.5 -63.5t-19.5 -68.5l-90 -289q-3 -10 -14 -10h-124zM155 97l23 108h190l24 -108h-237zM325 597q-22 0 -39.5 6.5t-32.5 12
t-33 5.5q-17 0 -32 -6t-27 -11q-14 -7 -14 8v64q0 10 7 15q9 6 27.5 14.5t43.5 8.5q24 0 40.5 -5.5t31 -11.5t30.5 -6q17 0 32.5 6t26.5 10q15 7 15 -7v-65q0 -9 -7 -14q-9 -6 -26.5 -15t-42.5 -9z" />
    <glyph glyph-name="ae.sc" horiz-adv-x="769" 
d="M10 0q-15 0 -9 13l240 522q4 9 14 9h456q11 0 11 -12v-92q0 -10 -11 -10h-237v-102h215q11 0 11 -12v-83q0 -11 -11 -11h-215v-107h237q11 0 11 -11v-92q0 -12 -11 -12h-362q-12 0 -12 12v99h-158l43 109h115v143q0 21 0.5 42t0.5 40h-2q-6 -21 -14 -41.5t-16 -39.5
l-157 -355q-4 -9 -14 -9h-125z" />
    <glyph glyph-name="b.sc" horiz-adv-x="541" 
d="M72 0q-12 0 -12 12v520q0 12 12 12h196q110 0 163 -34t53 -99q0 -50 -22 -78.5t-69 -43.5v-3q56 -9 85 -41.5t29 -86.5q0 -84 -56 -121t-182 -37h-197zM197 109h77q52 0 74 14.5t22 47.5q0 32 -23 46t-74 14h-76v-122zM197 324h70q43 0 61 14t18 44q0 27 -19 39.5
t-65 12.5h-65v-110z" />
    <glyph glyph-name="c.sc" horiz-adv-x="588" 
d="M293 -12q-115 0 -180 54t-65 167v129q0 111 65 164.5t181 53.5q83 0 141.5 -26t86.5 -72t18 -107q-1 -5 -4 -8.5t-9 -3.5l-115 1q-12 0 -11 11q2 38 -24 62t-82 24q-52 0 -80.5 -25.5t-28.5 -80.5v-116q0 -55 28.5 -81.5t81.5 -26.5q60 0 84 24.5t21 62.5q0 12 11 12
l115 1q11 0 13 -12q8 -92 -54.5 -149.5t-192.5 -57.5z" />
    <glyph glyph-name="cacute.sc" horiz-adv-x="588" 
d="M293 -12q-115 0 -180 54t-65 167v129q0 111 65 164.5t181 53.5q83 0 141.5 -26t86.5 -72t18 -107q-1 -5 -4 -8.5t-9 -3.5l-115 1q-12 0 -11 11q2 38 -24 62t-82 24q-52 0 -80.5 -25.5t-28.5 -80.5v-116q0 -55 28.5 -81.5t81.5 -26.5q60 0 84 24.5t21 62.5q0 12 11 12
l115 1q11 0 13 -12q8 -92 -54.5 -149.5t-192.5 -57.5zM223 596q-17 0 -8 15l59 109q5 9 16 9h92q8 0 9.5 -4.5t-2.5 -10.5l-84 -110q-5 -8 -15 -8h-67z" />
    <glyph glyph-name="ccaron.sc" horiz-adv-x="588" 
d="M293 -12q-115 0 -180 54t-65 167v129q0 111 65 164.5t181 53.5q83 0 141.5 -26t86.5 -72t18 -107q-1 -5 -4 -8.5t-9 -3.5l-115 1q-12 0 -11 11q2 38 -24 62t-82 24q-52 0 -80.5 -25.5t-28.5 -80.5v-116q0 -55 28.5 -81.5t81.5 -26.5q60 0 84 24.5t21 62.5q0 12 11 12
l115 1q11 0 13 -12q8 -92 -54.5 -149.5t-192.5 -57.5zM284 598l-110 52q-9 4 -9 14v68q0 13 14 7l114 -44l113 44q15 6 15 -7v-68q0 -10 -9 -14l-110 -52q-9 -5 -18 0z" />
    <glyph glyph-name="ccedilla.sc" horiz-adv-x="588" 
d="M293 -12q-115 0 -180 54t-65 167v129q0 111 65 164.5t181 53.5q83 0 141.5 -26t86.5 -72t18 -107q-1 -5 -4 -8.5t-9 -3.5l-115 1q-12 0 -11 11q2 38 -24 62t-82 24q-52 0 -80.5 -25.5t-28.5 -80.5v-116q0 -55 28.5 -81.5t81.5 -26.5q60 0 84 24.5t21 62.5q0 12 11 12
l115 1q11 0 13 -12q8 -92 -54.5 -149.5t-192.5 -57.5zM272 -197q-17 0 -30 1.5t-25 3.5q-10 1 -10 10v52q0 10 9 9q6 -1 15 -1.5t16 -0.5q20 0 28.5 6.5t8.5 16.5v8q0 12 -7.5 17t-23.5 5h-22q-7 0 -7 6q0 5 0.5 11.5t1.5 10.5l25 80q3 8 12 8h72q10 0 6 -13l-22 -65h8
q28 0 44 -17t16 -46v-17q0 -40 -27.5 -62.5t-87.5 -22.5z" />
    <glyph glyph-name="cdotaccent.sc" horiz-adv-x="588" 
d="M293 -12q-115 0 -180 54t-65 167v129q0 111 65 164.5t181 53.5q83 0 141.5 -26t86.5 -72t18 -107q-1 -5 -4 -8.5t-9 -3.5l-115 1q-12 0 -11 11q2 38 -24 62t-82 24q-52 0 -80.5 -25.5t-28.5 -80.5v-116q0 -55 28.5 -81.5t81.5 -26.5q60 0 84 24.5t21 62.5q0 12 11 12
l115 1q11 0 13 -12q8 -92 -54.5 -149.5t-192.5 -57.5zM293 608q-37 0 -57 19t-20 50v18q0 33 20 51.5t57 18.5q38 0 57.5 -18.5t19.5 -51.5v-18q0 -31 -19.5 -50t-57.5 -19z" />
    <glyph glyph-name="d.sc" horiz-adv-x="587" 
d="M72 0q-12 0 -12 12v520q0 12 12 12h199q139 0 206.5 -60.5t67.5 -178.5v-60q0 -121 -67 -183t-207 -62h-199zM198 119h66q76 0 109.5 33.5t33.5 97.5v50q0 61 -33.5 93t-109.5 32h-66v-306z" />
    <glyph glyph-name="eth.sc" horiz-adv-x="585" 
d="M14 226q-12 0 -12 12v75q0 12 12 12h45h224q12 0 12 -12v-75q0 -12 -12 -12h-269zM70 0q-12 0 -12 12v520q0 12 12 12h199q139 0 206.5 -60.5t67.5 -178.5v-60q0 -121 -67.5 -183t-206.5 -62h-199zM196 119h66q76 0 109.5 33.5t33.5 97.5v50q0 61 -33.5 93t-109.5 32h-66
v-306z" />
    <glyph glyph-name="dcaron.sc" horiz-adv-x="587" 
d="M72 0q-12 0 -12 12v520q0 12 12 12h199q139 0 206.5 -60.5t67.5 -178.5v-60q0 -121 -67 -183t-207 -62h-199zM198 119h66q76 0 109.5 33.5t33.5 97.5v50q0 61 -33.5 93t-109.5 32h-66v-306zM250 598l-110 52q-9 4 -9 14v68q0 13 14 7l114 -44l113 44q15 6 15 -7v-68
q0 -10 -9 -14l-110 -52q-9 -5 -18 0z" />
    <glyph glyph-name="dcroat.sc" horiz-adv-x="585" 
d="M14 226q-12 0 -12 12v75q0 12 12 12h45h224q12 0 12 -12v-75q0 -12 -12 -12h-269zM70 0q-12 0 -12 12v520q0 12 12 12h199q139 0 206.5 -60.5t67.5 -178.5v-60q0 -121 -67.5 -183t-206.5 -62h-199zM196 119h66q76 0 109.5 33.5t33.5 97.5v50q0 61 -33.5 93t-109.5 32h-66
v-306z" />
    <glyph glyph-name="e.sc" horiz-adv-x="486" 
d="M72 0q-12 0 -12 12v520q0 12 12 12h356q11 0 11 -12v-92q0 -10 -11 -10h-231v-102h209q12 0 12 -12v-83q0 -11 -12 -11h-209v-107h231q11 0 11 -11v-92q0 -12 -11 -12h-356z" />
    <glyph glyph-name="eacute.sc" horiz-adv-x="486" 
d="M72 0q-12 0 -12 12v520q0 12 12 12h356q11 0 11 -12v-92q0 -10 -11 -10h-231v-102h209q12 0 12 -12v-83q0 -11 -12 -11h-209v-107h231q11 0 11 -11v-92q0 -12 -11 -12h-356zM180 596q-17 0 -8 15l59 109q5 9 16 9h92q8 0 9.5 -4.5t-2.5 -10.5l-84 -110q-5 -8 -15 -8h-67z
" />
    <glyph glyph-name="ecaron.sc" horiz-adv-x="486" 
d="M72 0q-12 0 -12 12v520q0 12 12 12h356q11 0 11 -12v-92q0 -10 -11 -10h-231v-102h209q12 0 12 -12v-83q0 -11 -12 -11h-209v-107h231q11 0 11 -11v-92q0 -12 -11 -12h-356zM241 598l-110 52q-9 4 -9 14v68q0 13 14 7l114 -44l113 44q15 6 15 -7v-68q0 -10 -9 -14
l-110 -52q-9 -5 -18 0z" />
    <glyph glyph-name="ecircumflex.sc" horiz-adv-x="486" 
d="M72 0q-12 0 -12 12v520q0 12 12 12h356q11 0 11 -12v-92q0 -10 -11 -10h-231v-102h209q12 0 12 -12v-83q0 -11 -12 -11h-209v-107h231q11 0 11 -11v-92q0 -12 -11 -12h-356zM136 597q-14 -6 -14 7v68q0 10 9 14l110 52q9 5 18 0l110 -52q9 -4 9 -14v-68q0 -13 -15 -7
l-113 44z" />
    <glyph glyph-name="edieresis.sc" horiz-adv-x="486" 
d="M72 0q-12 0 -12 12v520q0 12 12 12h356q11 0 11 -12v-92q0 -10 -11 -10h-231v-102h209q12 0 12 -12v-83q0 -11 -12 -11h-209v-107h231q11 0 11 -11v-92q0 -12 -11 -12h-356zM150 607q-34 0 -52 17.5t-18 46.5v17q0 31 18 48t52 17q36 0 53.5 -17t17.5 -48v-17
q0 -29 -17.5 -46.5t-53.5 -17.5zM349 607q-34 0 -52 17.5t-18 46.5v17q0 31 18 48t52 17q35 0 53 -17t18 -48v-17q0 -29 -18 -46.5t-53 -17.5z" />
    <glyph glyph-name="edotaccent.sc" horiz-adv-x="486" 
d="M72 0q-12 0 -12 12v520q0 12 12 12h356q11 0 11 -12v-92q0 -10 -11 -10h-231v-102h209q12 0 12 -12v-83q0 -11 -12 -11h-209v-107h231q11 0 11 -11v-92q0 -12 -11 -12h-356zM250 608q-37 0 -57 19t-20 50v18q0 33 20 51.5t57 18.5q38 0 57.5 -18.5t19.5 -51.5v-18
q0 -31 -19.5 -50t-57.5 -19z" />
    <glyph glyph-name="egrave.sc" horiz-adv-x="486" 
d="M72 0q-12 0 -12 12v520q0 12 12 12h356q11 0 11 -12v-92q0 -10 -11 -10h-231v-102h209q12 0 12 -12v-83q0 -11 -12 -11h-209v-107h231q11 0 11 -11v-92q0 -12 -11 -12h-356zM249 596q-11 0 -16 8l-84 110q-5 7 -3 11.5t10 4.5h92q11 0 16 -10l60 -109q8 -15 -8 -15h-67z
" />
    <glyph glyph-name="emacron.sc" horiz-adv-x="486" 
d="M72 0q-12 0 -12 12v520q0 12 12 12h356q11 0 11 -12v-92q0 -10 -11 -10h-231v-102h209q12 0 12 -12v-83q0 -11 -12 -11h-209v-107h231q11 0 11 -11v-92q0 -12 -11 -12h-356zM148 600q-13 0 -13 13v71q0 13 13 13h204q13 0 13 -13v-71q0 -13 -13 -13h-204z" />
    <glyph glyph-name="eogonek.sc" horiz-adv-x="486" 
d="M72 0q-12 0 -12 12v520q0 12 12 12h356q11 0 11 -12v-92q0 -10 -11 -10h-231v-102h209q12 0 12 -12v-83q0 -11 -12 -11h-209v-107h231q11 0 11 -11v-92q0 -12 -11 -12h-356zM354 -199q-51 0 -80 23.5t-29 60.5v11q0 46 38.5 79.5t109.5 51.5l16 -15l-2 -11
q-27 -11 -41.5 -28.5t-14.5 -38.5v-6q0 -26 33 -26q8 0 15 0.5t15 1.5q10 2 10 -9v-75q0 -6 -1.5 -8t-8.5 -4q-14 -4 -30 -5.5t-30 -1.5z" />
    <glyph glyph-name="f.sc" horiz-adv-x="460" 
d="M72 0q-12 0 -12 12v520q0 12 12 12h350q12 0 12 -12v-92q0 -10 -12 -10h-225v-110h191q12 0 12 -12v-89q0 -12 -12 -12h-191v-195q0 -12 -12 -12h-113z" />
    <glyph glyph-name="f_f.sc" horiz-adv-x="920" 
d="M72 0q-12 0 -12 12v520q0 12 12 12h350q12 0 12 -12v-92q0 -10 -12 -10h-225v-110h191q12 0 12 -12v-89q0 -12 -12 -12h-191v-195q0 -12 -12 -12h-113zM532 0q-12 0 -12 12v520q0 12 12 12h350q12 0 12 -12v-92q0 -10 -12 -10h-225v-110h191q12 0 12 -12v-89
q0 -12 -12 -12h-191v-195q0 -12 -12 -12h-113z" />
    <glyph glyph-name="f_i.sc" horiz-adv-x="719" 
d="M72 0q-12 0 -12 12v520q0 12 12 12h350q12 0 12 -12v-92q0 -10 -12 -10h-225v-110h191q12 0 12 -12v-89q0 -12 -12 -12h-191v-195q0 -12 -12 -12h-113zM532 0q-12 0 -12 12v520q0 12 13 12h114q11 0 11 -12v-520q0 -12 -11 -12h-115z" />
    <glyph glyph-name="f_j.sc" horiz-adv-x="721" 
d="M72 0q-12 0 -12 12v520q0 12 12 12h350q12 0 12 -12v-92q0 -10 -12 -10h-225v-110h191q12 0 12 -12v-89q0 -12 -12 -12h-191v-195q0 -12 -12 -12h-113zM492 -139q-15 -3 -18 8l-29 92q-2 6 1 9.5t10 5.5q33 6 50 34t17 78v444q0 12 12 12h114q12 0 12 -12v-433
q0 -73 -18.5 -122.5t-55.5 -77.5t-95 -38z" />
    <glyph glyph-name="f_l.sc" horiz-adv-x="896" 
d="M72 0q-12 0 -12 12v520q0 12 12 12h350q12 0 12 -12v-92q0 -10 -12 -10h-225v-110h191q12 0 12 -12v-89q0 -12 -12 -12h-191v-195q0 -12 -12 -12h-113zM532 0q-12 0 -12 12v520q0 12 12 12h116q10 0 10 -12v-413h215q11 0 11 -11v-96q0 -12 -11 -12h-341z" />
    <glyph glyph-name="fi.sc" horiz-adv-x="719" 
d="M72 0q-12 0 -12 12v520q0 12 12 12h350q12 0 12 -12v-92q0 -10 -12 -10h-225v-110h191q12 0 12 -12v-89q0 -12 -12 -12h-191v-195q0 -12 -12 -12h-113zM532 0q-12 0 -12 12v520q0 12 13 12h114q11 0 11 -12v-520q0 -12 -11 -12h-115z" />
    <glyph glyph-name="fl.sc" horiz-adv-x="896" 
d="M72 0q-12 0 -12 12v520q0 12 12 12h350q12 0 12 -12v-92q0 -10 -12 -10h-225v-110h191q12 0 12 -12v-89q0 -12 -12 -12h-191v-195q0 -12 -12 -12h-113zM532 0q-12 0 -12 12v520q0 12 12 12h116q10 0 10 -12v-413h215q11 0 11 -11v-96q0 -12 -11 -12h-341z" />
    <glyph glyph-name="g.sc" horiz-adv-x="600" 
d="M275 -12q-66 0 -117.5 24t-80.5 73t-29 124v128q0 112 65.5 165.5t183.5 53.5q91 0 146 -24t78 -66t16 -97q-1 -12 -13 -12l-115 1q-10 0 -10 13q0 33 -24.5 49.5t-74.5 16.5q-58 0 -86 -25.5t-28 -80.5v-117q0 -57 28.5 -82t86.5 -25q55 0 80 20.5t25 54.5v20h-101
q-12 0 -12 12v66q0 12 12 12h223q11 0 11 -12v-136q0 -30 1.5 -66.5t6.5 -65.5q2 -12 -9 -12h-91q-10 0 -12 10t-3.5 25.5t-2.5 35.5h-1q-12 -25 -31.5 -43.5t-49 -29t-72.5 -10.5z" />
    <glyph glyph-name="gbreve.sc" horiz-adv-x="600" 
d="M275 -12q-66 0 -117.5 24t-80.5 73t-29 124v128q0 112 65.5 165.5t183.5 53.5q91 0 146 -24t78 -66t16 -97q-1 -12 -13 -12l-115 1q-10 0 -10 13q0 33 -24.5 49.5t-74.5 16.5q-58 0 -86 -25.5t-28 -80.5v-117q0 -57 28.5 -82t86.5 -25q55 0 80 20.5t25 54.5v20h-101
q-12 0 -12 12v66q0 12 12 12h223q11 0 11 -12v-136q0 -30 1.5 -66.5t6.5 -65.5q2 -12 -9 -12h-91q-10 0 -12 10t-3.5 25.5t-2.5 35.5h-1q-12 -25 -31.5 -43.5t-49 -29t-72.5 -10.5zM293 600q-42 0 -74.5 14t-44.5 24q-8 6 -8 16v72q0 8 4 10.5t10 -1.5q18 -13 49 -26.5
t64 -13.5t64 13.5t49 26.5q6 4 10 1.5t4 -10.5v-72q0 -10 -8 -16q-12 -10 -44 -24t-75 -14z" />
    <glyph glyph-name="uni0123.sc" horiz-adv-x="600" 
d="M275 -12q-66 0 -117.5 24t-80.5 73t-29 124v128q0 112 65.5 165.5t183.5 53.5q91 0 146 -24t78 -66t16 -97q-1 -12 -13 -12l-115 1q-10 0 -10 13q0 33 -24.5 49.5t-74.5 16.5q-58 0 -86 -25.5t-28 -80.5v-117q0 -57 28.5 -82t86.5 -25q55 0 80 20.5t25 54.5v20h-101
q-12 0 -12 12v66q0 12 12 12h223q11 0 11 -12v-136q0 -30 1.5 -66.5t6.5 -65.5q2 -12 -9 -12h-91q-10 0 -12 10t-3.5 25.5t-2.5 35.5h-1q-12 -25 -31.5 -43.5t-49 -29t-72.5 -10.5zM256 -255q-10 0 -7 11l13 70q-15 5 -23 18t-8 33v18q0 28 16.5 42.5t46.5 14.5
q33 0 49 -14.5t16 -42.5v-20q0 -13 -2 -25.5t-7 -27.5l-23 -69q-3 -8 -13 -8h-58z" />
    <glyph glyph-name="gdotaccent.sc" horiz-adv-x="600" 
d="M275 -12q-66 0 -117.5 24t-80.5 73t-29 124v128q0 112 65.5 165.5t183.5 53.5q91 0 146 -24t78 -66t16 -97q-1 -12 -13 -12l-115 1q-10 0 -10 13q0 33 -24.5 49.5t-74.5 16.5q-58 0 -86 -25.5t-28 -80.5v-117q0 -57 28.5 -82t86.5 -25q55 0 80 20.5t25 54.5v20h-101
q-12 0 -12 12v66q0 12 12 12h223q11 0 11 -12v-136q0 -30 1.5 -66.5t6.5 -65.5q2 -12 -9 -12h-91q-10 0 -12 10t-3.5 25.5t-2.5 35.5h-1q-12 -25 -31.5 -43.5t-49 -29t-72.5 -10.5zM293 608q-37 0 -57 19t-20 50v18q0 33 20 51.5t57 18.5q38 0 57.5 -18.5t19.5 -51.5v-18
q0 -31 -19.5 -50t-57.5 -19z" />
    <glyph glyph-name="h.sc" horiz-adv-x="604" 
d="M73 0q-13 0 -13 12v520q0 12 13 12h113q12 0 12 -12v-201h208v201q0 12 12 12h113q12 0 12 -12v-520q0 -12 -12 -12h-113q-12 0 -12 12v203h-208v-203q0 -12 -12 -12h-113z" />
    <glyph glyph-name="hbar.sc" horiz-adv-x="603" 
d="M25 395q-12 0 -12 12v71q0 11 12 11h556q12 0 12 -11v-71q0 -12 -12 -12h-37h-483h-36zM73 0q-13 0 -13 12v520q0 12 13 12h113q12 0 12 -12v-201h208v201q0 12 12 12h113q12 0 12 -12v-520q0 -12 -12 -12h-113q-12 0 -12 12v203h-208v-203q0 -12 -12 -12h-113z" />
    <glyph glyph-name="i.sc" horiz-adv-x="259" 
d="M72 0q-12 0 -12 12v520q0 12 13 12h114q11 0 11 -12v-520q0 -12 -11 -12h-115z" />
    <glyph glyph-name="dotlessi.sc" horiz-adv-x="259" 
d="M72 0q-12 0 -12 12v521q0 11 12 11h115q11 0 11 -11v-521q0 -12 -11 -12h-115z" />
    <glyph glyph-name="iacute.sc" horiz-adv-x="259" 
d="M72 0q-12 0 -12 12v520q0 12 13 12h114q11 0 11 -12v-520q0 -12 -11 -12h-115zM60 596q-17 0 -8 15l59 109q5 9 16 9h92q8 0 9.5 -4.5t-2.5 -10.5l-84 -110q-5 -8 -15 -8h-67z" />
    <glyph glyph-name="icircumflex.sc" horiz-adv-x="259" 
d="M72 0q-12 0 -12 12v520q0 12 13 12h114q11 0 11 -12v-520q0 -12 -11 -12h-115zM16 597q-14 -6 -14 7v68q0 10 9 14l110 52q9 5 18 0l110 -52q9 -4 9 -14v-68q0 -13 -15 -7l-113 44z" />
    <glyph glyph-name="idieresis.sc" horiz-adv-x="259" 
d="M72 0q-12 0 -12 12v520q0 12 13 12h114q11 0 11 -12v-520q0 -12 -11 -12h-115zM30 607q-34 0 -52 17.5t-18 46.5v17q0 31 18 48t52 17q36 0 53.5 -17t17.5 -48v-17q0 -29 -17.5 -46.5t-53.5 -17.5zM229 607q-34 0 -52 17.5t-18 46.5v17q0 31 18 48t52 17q35 0 53 -17
t18 -48v-17q0 -29 -18 -46.5t-53 -17.5z" />
    <glyph glyph-name="i.loclTRK.sc" horiz-adv-x="259" 
d="M72 0q-12 0 -12 12v520q0 12 13 12h114q11 0 11 -12v-520q0 -12 -11 -12h-115zM129 608q-37 0 -57 19t-20 50v18q0 33 20 51.5t57 18.5q38 0 57.5 -18.5t19.5 -51.5v-18q0 -31 -19.5 -50t-57.5 -19z" />
    <glyph glyph-name="igrave.sc" horiz-adv-x="259" 
d="M72 0q-12 0 -12 12v520q0 12 13 12h114q11 0 11 -12v-520q0 -12 -11 -12h-115zM128 596q-11 0 -16 8l-84 110q-5 7 -3 11.5t10 4.5h92q11 0 16 -10l60 -109q8 -15 -8 -15h-67z" />
    <glyph glyph-name="ij.sc" horiz-adv-x="520" 
d="M72 0q-12 0 -12 12v520q0 12 13 12h114q11 0 11 -12v-520q0 -12 -11 -12h-115zM291 -139q-15 -3 -18 8l-29 92q-2 6 1 9.5t10 5.5q33 6 50 34t17 78v444q0 12 12 12h114q12 0 12 -12v-433q0 -73 -18.5 -122.5t-55.5 -77.5t-95 -38z" />
    <glyph glyph-name="imacron.sc" horiz-adv-x="259" 
d="M72 0q-12 0 -12 12v520q0 12 13 12h114q11 0 11 -12v-520q0 -12 -11 -12h-115zM27 600q-13 0 -13 13v71q0 13 13 13h204q13 0 13 -13v-71q0 -13 -13 -13h-204z" />
    <glyph glyph-name="iogonek.sc" horiz-adv-x="259" 
d="M72 0q-12 0 -12 12v520q0 12 13 12h114q11 0 11 -12v-520q0 -12 -11 -12h-115zM131 -198q-51 0 -80 23.5t-29 60.5v11q0 46 38.5 79.5t109.5 51.5l16 -15l-2 -11q-27 -11 -41.5 -28.5t-14.5 -38.5v-6q0 -26 33 -26q8 0 15 0.5t15 1.5q10 2 10 -9v-75q0 -6 -1.5 -8
t-8.5 -4q-14 -4 -30 -5.5t-30 -1.5z" />
    <glyph glyph-name="j.sc" horiz-adv-x="261" 
d="M32 -139q-15 -3 -18 8l-29 92q-2 6 1 9.5t10 5.5q33 6 50 34t17 78v444q0 12 12 12h114q12 0 12 -12v-433q0 -73 -18.5 -122.5t-55.5 -77.5t-95 -38z" />
    <glyph glyph-name="uni0237.sc" horiz-adv-x="261" 
d="M32 -139q-15 -3 -18 8l-29 92q-2 6 1 9.5t10 5.5q33 6 50 34t17 78v444q0 12 12 12h114q12 0 12 -12v-433q0 -73 -18.5 -122.5t-55.5 -77.5t-95 -38z" />
    <glyph glyph-name="k.sc" horiz-adv-x="563" 
d="M72 0q-12 0 -12 12v520q0 12 12 12h113q12 0 12 -12v-123q0 -25 -0.5 -50t-3.5 -50h3q14 25 31 49t38 48l114 132q5 6 15 6h136q8 0 10 -3.5t-2 -10.5l-183 -206l204 -310q4 -6 1.5 -10t-9.5 -4h-137q-10 0 -15 8l-136 214l-66 -70v-140q0 -12 -13 -12h-112z" />
    <glyph glyph-name="uni0137.sc" horiz-adv-x="563" 
d="M72 0q-12 0 -12 12v520q0 12 12 12h113q12 0 12 -12v-123q0 -25 -0.5 -50t-3.5 -50h3q14 25 31 49t38 48l114 132q5 6 15 6h136q8 0 10 -3.5t-2 -10.5l-183 -206l204 -310q4 -6 1.5 -10t-9.5 -4h-137q-10 0 -15 8l-136 214l-66 -70v-140q0 -12 -13 -12h-112zM251 -255
q-10 0 -7 11l13 70q-15 5 -23 18t-8 33v18q0 28 16.5 42.5t46.5 14.5q33 0 49 -14.5t16 -42.5v-20q0 -13 -2 -25.5t-7 -27.5l-23 -69q-3 -8 -13 -8h-58z" />
    <glyph glyph-name="kgreenlandic.sc" horiz-adv-x="563" 
d="M72 0q-12 0 -12 12v520q0 12 12 12h113q12 0 12 -12v-123q0 -25 -0.5 -50t-3.5 -50h3q14 25 31 49t38 48l114 132q5 6 15 6h136q8 0 10 -3.5t-2 -10.5l-183 -206l204 -310q4 -6 1.5 -10t-9.5 -4h-137q-10 0 -15 8l-136 214l-66 -70v-140q0 -12 -13 -12h-112z" />
    <glyph glyph-name="l.sc" horiz-adv-x="436" 
d="M72 0q-12 0 -12 12v520q0 12 12 12h116q10 0 10 -12v-413h215q11 0 11 -11v-96q0 -12 -11 -12h-341z" />
    <glyph glyph-name="lacute.sc" horiz-adv-x="436" 
d="M72 0q-12 0 -12 12v520q0 12 12 12h116q10 0 10 -12v-413h215q11 0 11 -11v-96q0 -12 -11 -12h-341zM59 596q-17 0 -8 15l59 109q5 9 16 9h92q8 0 9.5 -4.5t-2.5 -10.5l-84 -110q-5 -8 -15 -8h-67z" />
    <glyph glyph-name="lcaron.sc" horiz-adv-x="417" 
d="M274 380q-9 0 -8 10l12 53q-12 5 -20 14.5t-8 27.5v19q0 22 15 34t43 12t42.5 -11.5t14.5 -33.5v-21q0 -11 -1.5 -22t-6.5 -23l-19 -51q-3 -8 -11 -8h-53zM72 0q-12 0 -12 12v520q0 12 12 12h116q10 0 10 -12v-413h215q11 0 11 -11v-96q0 -12 -11 -12h-341z" />
    <glyph glyph-name="uni013C.sc" horiz-adv-x="436" 
d="M72 0q-12 0 -12 12v520q0 12 12 12h116q10 0 10 -12v-413h215q11 0 11 -11v-96q0 -12 -11 -12h-341zM208 -255q-10 0 -7 11l13 70q-15 5 -23 18t-8 33v18q0 28 16.5 42.5t46.5 14.5q33 0 49 -14.5t16 -42.5v-20q0 -13 -2 -25.5t-7 -27.5l-23 -69q-3 -8 -13 -8h-58z" />
    <glyph glyph-name="lslash.sc" horiz-adv-x="436" 
d="M10 210q-12 -3 -12 8v77q0 10 9 12l288 83q11 4 11 -8v-77q0 -10 -9 -13zM72 0q-12 0 -12 12v520q0 12 12 12h116q10 0 10 -12v-413h215q11 0 11 -11v-96q0 -12 -11 -12h-341z" />
    <glyph glyph-name="m.sc" horiz-adv-x="725" 
d="M63 0q-12 0 -12 11l11 521q0 12 12 12h129q9 0 14 -9l146 -277l145 277q5 9 14 9h129q11 0 11 -12l12 -520q0 -12 -12 -12h-110q-12 0 -12 11l-4 184q-1 36 1 75t5 87h-3q-16 -36 -32.5 -68t-31.5 -60l-96 -174q-5 -8 -14 -8h-6q-8 0 -13 8l-100 182q-14 26 -29.5 56
t-30.5 64h-3q3 -48 5 -88t1 -75l-4 -182q0 -12 -12 -12h-110z" />
    <glyph glyph-name="n.sc" horiz-adv-x="606" 
d="M72 0q-12 0 -12 12v520q0 12 12 12h139q8 0 13 -8l84 -149q32 -52 52 -89.5t34.5 -67.5t27.5 -59h2l-6 66t-4.5 70.5t-1.5 83.5v141q0 12 11 12h111q12 0 12 -12v-520q0 -12 -12 -12h-137q-8 0 -14 8l-83 149q-28 48 -48 84t-35 67t-28 61h-3q4 -47 6 -99t2 -113v-145
q0 -12 -12 -12h-110z" />
    <glyph glyph-name="nacute.sc" horiz-adv-x="606" 
d="M72 0q-12 0 -12 12v520q0 12 12 12h139q8 0 13 -8l84 -149q32 -52 52 -89.5t34.5 -67.5t27.5 -59h2l-6 66t-4.5 70.5t-1.5 83.5v141q0 12 11 12h111q12 0 12 -12v-520q0 -12 -12 -12h-137q-8 0 -14 8l-83 149q-28 48 -48 84t-35 67t-28 61h-3q4 -47 6 -99t2 -113v-145
q0 -12 -12 -12h-110zM233 597q-17 0 -8 15l59 109q5 9 16 9h92q8 0 9.5 -4.5t-2.5 -10.5l-84 -110q-5 -8 -15 -8h-67z" />
    <glyph glyph-name="ncaron.sc" horiz-adv-x="606" 
d="M72 0q-12 0 -12 12v520q0 12 12 12h139q8 0 13 -8l84 -149q32 -52 52 -89.5t34.5 -67.5t27.5 -59h2l-6 66t-4.5 70.5t-1.5 83.5v141q0 12 11 12h111q12 0 12 -12v-520q0 -12 -12 -12h-137q-8 0 -14 8l-83 149q-28 48 -48 84t-35 67t-28 61h-3q4 -47 6 -99t2 -113v-145
q0 -12 -12 -12h-110zM294 599l-110 52q-9 4 -9 14v68q0 13 14 7l114 -44l113 44q15 6 15 -7v-68q0 -10 -9 -14l-110 -52q-9 -5 -18 0z" />
    <glyph glyph-name="uni0146.sc" horiz-adv-x="606" 
d="M72 0q-12 0 -12 12v520q0 12 12 12h139q8 0 13 -8l84 -149q32 -52 52 -89.5t34.5 -67.5t27.5 -59h2l-6 66t-4.5 70.5t-1.5 83.5v141q0 12 11 12h111q12 0 12 -12v-520q0 -12 -12 -12h-137q-8 0 -14 8l-83 149q-28 48 -48 84t-35 67t-28 61h-3q4 -47 6 -99t2 -113v-145
q0 -12 -12 -12h-110zM263 -255q-10 0 -7 11l13 70q-15 5 -23 18t-8 33v18q0 28 16.5 42.5t46.5 14.5q33 0 49 -14.5t16 -42.5v-20q0 -13 -2 -25.5t-7 -27.5l-23 -69q-3 -8 -13 -8h-58z" />
    <glyph glyph-name="eng.sc" horiz-adv-x="606" 
d="M413 -156l-58 74q-4 4 -3 9t7 9q19 13 34 28t20 36h-16q-8 0 -14 8l-113 196q-20 36 -41 78t-40 87h-3q4 -47 6 -95.5t2 -88.5v-173q0 -12 -12 -12h-110q-12 0 -12 12v520q0 12 12 12h139q8 0 13 -8l116 -202q23 -39 42.5 -79t39.5 -84h2q-5 49 -8.5 97.5t-3.5 88.5v175
q0 12 11 12h111q12 0 12 -12v-458q0 -57 -11 -100.5t-37 -76t-71 -56.5q-8 -4 -14 3z" />
    <glyph glyph-name="ntilde.sc" horiz-adv-x="606" 
d="M72 0q-12 0 -12 12v520q0 12 12 12h139q8 0 13 -8l84 -149q32 -52 52 -89.5t34.5 -67.5t27.5 -59h2l-6 66t-4.5 70.5t-1.5 83.5v141q0 12 11 12h111q12 0 12 -12v-520q0 -12 -12 -12h-137q-8 0 -14 8l-83 149q-28 48 -48 84t-35 67t-28 61h-3q4 -47 6 -99t2 -113v-145
q0 -12 -12 -12h-110zM354 598q-22 0 -39.5 6.5t-32.5 12t-33 5.5q-17 0 -32 -6t-27 -11q-14 -7 -14 8v64q0 10 7 15q9 6 27.5 14.5t43.5 8.5q24 0 40.5 -5.5t31 -11.5t30.5 -6q17 0 32.5 6t26.5 10q15 7 15 -7v-65q0 -9 -7 -14q-9 -6 -26.5 -15t-42.5 -9z" />
    <glyph glyph-name="o.sc" horiz-adv-x="590" 
d="M295 -12q-121 0 -184 55t-63 163v132q0 108 63 163t184 55t184 -55t63 -163v-132q0 -108 -63 -163t-184 -55zM295 107q54 0 81.5 28t27.5 81v112q0 53 -27.5 81t-81.5 28t-81.5 -28t-27.5 -81v-112q0 -53 27.5 -81t81.5 -28z" />
    <glyph glyph-name="oacute.sc" horiz-adv-x="590" 
d="M295 -12q-121 0 -184 55t-63 163v132q0 108 63 163t184 55t184 -55t63 -163v-132q0 -108 -63 -163t-184 -55zM295 107q54 0 81.5 28t27.5 81v112q0 53 -27.5 81t-81.5 28t-81.5 -28t-27.5 -81v-112q0 -53 27.5 -81t81.5 -28zM225 596q-17 0 -8 15l59 109q5 9 16 9h92
q8 0 9.5 -4.5t-2.5 -10.5l-84 -110q-5 -8 -15 -8h-67z" />
    <glyph glyph-name="ocircumflex.sc" horiz-adv-x="590" 
d="M295 -12q-121 0 -184 55t-63 163v132q0 108 63 163t184 55t184 -55t63 -163v-132q0 -108 -63 -163t-184 -55zM295 107q54 0 81.5 28t27.5 81v112q0 53 -27.5 81t-81.5 28t-81.5 -28t-27.5 -81v-112q0 -53 27.5 -81t81.5 -28zM181 597q-14 -6 -14 7v68q0 10 9 14l110 52
q9 5 18 0l110 -52q9 -4 9 -14v-68q0 -13 -15 -7l-113 44z" />
    <glyph glyph-name="odieresis.sc" horiz-adv-x="590" 
d="M295 -12q-121 0 -184 55t-63 163v132q0 108 63 163t184 55t184 -55t63 -163v-132q0 -108 -63 -163t-184 -55zM295 107q54 0 81.5 28t27.5 81v112q0 53 -27.5 81t-81.5 28t-81.5 -28t-27.5 -81v-112q0 -53 27.5 -81t81.5 -28zM195 607q-34 0 -52 17.5t-18 46.5v17
q0 31 18 48t52 17q36 0 53.5 -17t17.5 -48v-17q0 -29 -17.5 -46.5t-53.5 -17.5zM394 607q-34 0 -52 17.5t-18 46.5v17q0 31 18 48t52 17q35 0 53 -17t18 -48v-17q0 -29 -18 -46.5t-53 -17.5z" />
    <glyph glyph-name="ograve.sc" horiz-adv-x="590" 
d="M295 -12q-121 0 -184 55t-63 163v132q0 108 63 163t184 55t184 -55t63 -163v-132q0 -108 -63 -163t-184 -55zM295 107q54 0 81.5 28t27.5 81v112q0 53 -27.5 81t-81.5 28t-81.5 -28t-27.5 -81v-112q0 -53 27.5 -81t81.5 -28zM294 596q-11 0 -16 8l-84 110q-5 7 -3 11.5
t10 4.5h92q11 0 16 -10l60 -109q8 -15 -8 -15h-67z" />
    <glyph glyph-name="ohungarumlaut.sc" horiz-adv-x="590" 
d="M295 -12q-121 0 -184 55t-63 163v132q0 108 63 163t184 55t184 -55t63 -163v-132q0 -108 -63 -163t-184 -55zM295 107q54 0 81.5 28t27.5 81v112q0 53 -27.5 81t-81.5 28t-81.5 -28t-27.5 -81v-112q0 -53 27.5 -81t81.5 -28zM336 596q-14 0 -9 13l48 112q4 10 15 10h92
q16 0 8 -15l-62 -111q-5 -9 -16 -9h-76zM172 596q-14 0 -8 13l47 112q4 10 15 10h93q15 0 7 -15l-62 -111q-5 -9 -16 -9h-76z" />
    <glyph glyph-name="omacron.sc" horiz-adv-x="590" 
d="M295 -12q-121 0 -184 55t-63 163v132q0 108 63 163t184 55t184 -55t63 -163v-132q0 -108 -63 -163t-184 -55zM295 107q54 0 81.5 28t27.5 81v112q0 53 -27.5 81t-81.5 28t-81.5 -28t-27.5 -81v-112q0 -53 27.5 -81t81.5 -28zM193 600q-13 0 -13 13v71q0 13 13 13h204
q13 0 13 -13v-71q0 -13 -13 -13h-204z" />
    <glyph glyph-name="oslash.sc" horiz-adv-x="590" 
d="M60 -47q-6 0 -8.5 4t0.5 10l65 106l50 60l203 331l14 46l44 72q5 8 14 8h90q6 0 8 -3.5t-1 -9.5l-65 -107l-47 -57l-204 -334l-16 -50l-43 -68q-5 -8 -14 -8h-90zM295 -12q-121 0 -184 55t-63 163v132q0 108 63 163t184 55t184 -55t63 -163v-132q0 -108 -63 -163
t-184 -55zM295 107q54 0 81.5 28t27.5 81v112q0 53 -27.5 81t-81.5 28t-81.5 -28t-27.5 -81v-112q0 -53 27.5 -81t81.5 -28z" />
    <glyph glyph-name="otilde.sc" horiz-adv-x="590" 
d="M295 -12q-121 0 -184 55t-63 163v132q0 108 63 163t184 55t184 -55t63 -163v-132q0 -108 -63 -163t-184 -55zM295 107q54 0 81.5 28t27.5 81v112q0 53 -27.5 81t-81.5 28t-81.5 -28t-27.5 -81v-112q0 -53 27.5 -81t81.5 -28zM346 597q-22 0 -39.5 6.5t-32.5 12t-33 5.5
q-17 0 -32 -6t-27 -11q-14 -7 -14 8v64q0 10 7 15q9 6 27.5 14.5t43.5 8.5q24 0 40.5 -5.5t31 -11.5t30.5 -6q17 0 32.5 6t26.5 10q15 7 15 -7v-65q0 -9 -7 -14q-9 -6 -26.5 -15t-42.5 -9z" />
    <glyph glyph-name="oe.sc" horiz-adv-x="793" 
d="M293 -11q-122 0 -183.5 55t-61.5 163v131q0 107 62 162t184 55q21 0 47 -3t45 -8h349q12 0 12 -12v-92q0 -10 -12 -10h-231v-102h210q11 0 11 -12v-83q0 -11 -11 -11h-210v-107h231q12 0 12 -11v-92q0 -12 -12 -12h-349q-20 -5 -43.5 -8t-49.5 -3zM297 107q23 0 40.5 2
t30.5 6v312q-14 4 -33 7t-38 3q-56 0 -84 -28t-28 -80v-113q0 -53 28 -81t84 -28z" />
    <glyph glyph-name="p.sc" horiz-adv-x="510" 
d="M72 0q-12 0 -12 12v520q0 12 12 12h184q83 0 133.5 -21.5t74 -63t23.5 -103.5q0 -89 -56 -137t-175 -48h-58v-159q0 -12 -12 -12h-114zM198 285h59q46 0 69 17t23 56q0 40 -22 56t-70 16h-59v-145z" />
    <glyph glyph-name="thorn.sc" horiz-adv-x="510" 
d="M72 0q-12 0 -12 12v521q0 11 12 11h115q11 0 11 -11v-68h58q83 0 133.5 -21t74 -63t23.5 -103q0 -90 -56 -138t-175 -48h-58v-80q0 -12 -11 -12h-115zM198 206h59q46 0 69 17.5t23 55.5q0 39 -22 55.5t-70 16.5h-59v-145z" />
    <glyph glyph-name="q.sc" horiz-adv-x="590" 
d="M422 -154q-69 0 -104 45t-35 144q0 12 13 12l90 -2q11 0 11 -12q0 -40 10.5 -64t39.5 -24q10 0 18 1.5t15 3.5t10 -1t3 -9v-66q0 -9 -9 -14q-10 -5 -25 -9.5t-37 -4.5zM295 -12q-121 0 -184 55t-63 163v132q0 108 63 163t184 55t184 -55t63 -163v-132q0 -108 -63 -163
t-184 -55zM295 107q54 0 81.5 28t27.5 81v112q0 53 -27.5 81t-81.5 28t-81.5 -28t-27.5 -81v-112q0 -53 27.5 -81t81.5 -28z" />
    <glyph glyph-name="r.sc" horiz-adv-x="555" 
d="M72 0q-12 0 -12 12v520q0 12 12 12h203q122 0 175 -42.5t53 -126.5q0 -58 -29.5 -99.5t-81.5 -52.5v-2q13 -16 24 -31.5t22 -32.5l97 -143q4 -5 2 -9.5t-9 -4.5h-132q-9 0 -15 8l-122 192h-62v-188q0 -12 -12 -12h-113zM197 301h78q48 0 69.5 16.5t21.5 50.5
q0 31 -19.5 47t-68.5 16h-81v-130z" />
    <glyph glyph-name="racute.sc" horiz-adv-x="555" 
d="M72 0q-12 0 -12 12v520q0 12 12 12h203q122 0 175 -42.5t53 -126.5q0 -58 -29.5 -99.5t-81.5 -52.5v-2q13 -16 24 -31.5t22 -32.5l97 -143q4 -5 2 -9.5t-9 -4.5h-132q-9 0 -15 8l-122 192h-62v-188q0 -12 -12 -12h-113zM197 301h78q48 0 69.5 16.5t21.5 50.5
q0 31 -19.5 47t-68.5 16h-81v-130zM188 596q-17 0 -8 15l59 109q5 9 16 9h92q8 0 9.5 -4.5t-2.5 -10.5l-84 -110q-5 -8 -15 -8h-67z" />
    <glyph glyph-name="rcaron.sc" horiz-adv-x="555" 
d="M72 0q-12 0 -12 12v520q0 12 12 12h203q122 0 175 -42.5t53 -126.5q0 -58 -29.5 -99.5t-81.5 -52.5v-2q13 -16 24 -31.5t22 -32.5l97 -143q4 -5 2 -9.5t-9 -4.5h-132q-9 0 -15 8l-122 192h-62v-188q0 -12 -12 -12h-113zM197 301h78q48 0 69.5 16.5t21.5 50.5
q0 31 -19.5 47t-68.5 16h-81v-130zM249 598l-110 52q-9 4 -9 14v68q0 13 14 7l114 -44l113 44q15 6 15 -7v-68q0 -10 -9 -14l-110 -52q-9 -5 -18 0z" />
    <glyph glyph-name="uni0157.sc" horiz-adv-x="555" 
d="M72 0q-12 0 -12 12v520q0 12 12 12h203q122 0 175 -42.5t53 -126.5q0 -58 -29.5 -99.5t-81.5 -52.5v-2q13 -16 24 -31.5t22 -32.5l97 -143q4 -5 2 -9.5t-9 -4.5h-132q-9 0 -15 8l-122 192h-62v-188q0 -12 -12 -12h-113zM197 301h78q48 0 69.5 16.5t21.5 50.5
q0 31 -19.5 47t-68.5 16h-81v-130zM244 -255q-10 0 -7 11l13 70q-15 5 -23 18t-8 33v18q0 28 16.5 42.5t46.5 14.5q33 0 49 -14.5t16 -42.5v-20q0 -13 -2 -25.5t-7 -27.5l-23 -69q-3 -8 -13 -8h-58z" />
    <glyph glyph-name="s.sc" horiz-adv-x="514" 
d="M252 -12q-117 0 -172.5 43t-45.5 129q2 13 14 13h113q14 0 12 -14q-3 -28 16.5 -45t62.5 -17q47 0 67.5 11.5t20.5 35.5q0 13 -5.5 22.5t-18 17.5t-33.5 16l-139 57q-37 15 -61 36t-35 49t-11 64q1 78 53 114t156 36q118 0 176 -43t48 -128q-1 -15 -11 -15h-115
q-12 0 -11 15q2 29 -19 45.5t-66 16.5q-37 0 -55 -9.5t-18 -33.5q0 -12 5.5 -21t18.5 -16.5t34 -16.5l138 -56q38 -16 62 -35.5t34.5 -46.5t10.5 -66q-1 -83 -57 -120.5t-169 -37.5z" />
    <glyph glyph-name="sacute.sc" horiz-adv-x="514" 
d="M252 -12q-117 0 -172.5 43t-45.5 129q2 13 14 13h113q14 0 12 -14q-3 -28 16.5 -45t62.5 -17q47 0 67.5 11.5t20.5 35.5q0 13 -5.5 22.5t-18 17.5t-33.5 16l-139 57q-37 15 -61 36t-35 49t-11 64q1 78 53 114t156 36q118 0 176 -43t48 -128q-1 -15 -11 -15h-115
q-12 0 -11 15q2 29 -19 45.5t-66 16.5q-37 0 -55 -9.5t-18 -33.5q0 -12 5.5 -21t18.5 -16.5t34 -16.5l138 -56q38 -16 62 -35.5t34.5 -46.5t10.5 -66q-1 -83 -57 -120.5t-169 -37.5zM175 596q-17 0 -8 15l59 109q5 9 16 9h92q8 0 9.5 -4.5t-2.5 -10.5l-84 -110q-5 -8 -15 -8
h-67z" />
    <glyph glyph-name="scaron.sc" horiz-adv-x="514" 
d="M252 -12q-117 0 -172.5 43t-45.5 129q2 13 14 13h113q14 0 12 -14q-3 -28 16.5 -45t62.5 -17q47 0 67.5 11.5t20.5 35.5q0 13 -5.5 22.5t-18 17.5t-33.5 16l-139 57q-37 15 -61 36t-35 49t-11 64q1 78 53 114t156 36q118 0 176 -43t48 -128q-1 -15 -11 -15h-115
q-12 0 -11 15q2 29 -19 45.5t-66 16.5q-37 0 -55 -9.5t-18 -33.5q0 -12 5.5 -21t18.5 -16.5t34 -16.5l138 -56q38 -16 62 -35.5t34.5 -46.5t10.5 -66q-1 -83 -57 -120.5t-169 -37.5zM236 598l-110 52q-9 4 -9 14v68q0 13 14 7l114 -44l113 44q15 6 15 -7v-68q0 -10 -9 -14
l-110 -52q-9 -5 -18 0z" />
    <glyph glyph-name="scedilla.sc" horiz-adv-x="514" 
d="M252 -12q-117 0 -172.5 43t-45.5 129q2 13 14 13h113q14 0 12 -14q-3 -28 16.5 -45t62.5 -17q47 0 67.5 11.5t20.5 35.5q0 13 -5.5 22.5t-18 17.5t-33.5 16l-139 57q-37 15 -61 36t-35 49t-11 64q1 78 53 114t156 36q118 0 176 -43t48 -128q-1 -15 -11 -15h-115
q-12 0 -11 15q2 29 -19 45.5t-66 16.5q-37 0 -55 -9.5t-18 -33.5q0 -12 5.5 -21t18.5 -16.5t34 -16.5l138 -56q38 -16 62 -35.5t34.5 -46.5t10.5 -66q-1 -83 -57 -120.5t-169 -37.5zM243 -197q-17 0 -30 1.5t-25 3.5q-10 1 -10 10v52q0 10 9 9q6 -1 15 -1.5t16 -0.5
q20 0 28.5 6.5t8.5 16.5v8q0 12 -7.5 17t-23.5 5h-22q-7 0 -7 6q0 5 0.5 11.5t1.5 10.5l25 80q3 8 12 8h72q10 0 6 -13l-22 -65h8q28 0 44 -17t16 -46v-17q0 -40 -27.5 -62.5t-87.5 -22.5z" />
    <glyph glyph-name="uni0219.sc" horiz-adv-x="514" 
d="M252 -12q-117 0 -172.5 43t-45.5 129q2 13 14 13h113q14 0 12 -14q-3 -28 16.5 -45t62.5 -17q47 0 67.5 11.5t20.5 35.5q0 13 -5.5 22.5t-18 17.5t-33.5 16l-139 57q-37 15 -61 36t-35 49t-11 64q1 78 53 114t156 36q118 0 176 -43t48 -128q-1 -15 -11 -15h-115
q-12 0 -11 15q2 29 -19 45.5t-66 16.5q-37 0 -55 -9.5t-18 -33.5q0 -12 5.5 -21t18.5 -16.5t34 -16.5l138 -56q38 -16 62 -35.5t34.5 -46.5t10.5 -66q-1 -83 -57 -120.5t-169 -37.5zM229 -255q-10 0 -7 11l13 70q-15 5 -23 18t-8 33v18q0 28 16.5 42.5t46.5 14.5
q33 0 49 -14.5t16 -42.5v-20q0 -13 -2 -25.5t-7 -27.5l-23 -69q-3 -8 -13 -8h-58z" />
    <glyph glyph-name="germandbls.sc" horiz-adv-x="603" 
d="M391 -12q-65 0 -102 16.5t-50 49.5t-9 81q1 7 5 10.5t8 3.5l96 -1q12 0 11 -13q0 -16 11 -24.5t31 -8.5q28 0 40 17t12 48q0 36 -18.5 51.5t-63.5 15.5h-69q-13 0 -13 13v37q0 7 3 13l73 133h-158v-418q0 -12 -11 -12h-115q-12 0 -12 12v520q0 12 12 12h457q8 0 10.5 -6
t-2.5 -15l-111 -195q81 -10 116.5 -52.5t35.5 -114.5q-1 -93 -48.5 -133t-138.5 -40z" />
    <glyph glyph-name="t.sc" horiz-adv-x="490" 
d="M188 0q-12 0 -12 12v413h-145q-12 0 -12 11v96q0 12 12 12h428q12 0 12 -12v-96q0 -11 -12 -11h-145v-413q0 -12 -12 -12h-114z" />
    <glyph glyph-name="tbar.sc" horiz-adv-x="490" 
d="M105 209q-12 0 -12 11v74q0 12 12 12h282q12 0 12 -12v-74q0 -11 -12 -11h-73h-137h-72zM188 0q-12 0 -12 12v413h-145q-12 0 -12 11v96q0 12 12 12h428q12 0 12 -12v-96q0 -11 -12 -11h-145v-413q0 -12 -12 -12h-114z" />
    <glyph glyph-name="tcaron.sc" horiz-adv-x="490" 
d="M188 0q-12 0 -12 12v413h-145q-12 0 -12 11v96q0 12 12 12h428q12 0 12 -12v-96q0 -11 -12 -11h-145v-413q0 -12 -12 -12h-114zM236 598l-110 52q-9 4 -9 14v68q0 13 14 7l114 -44l113 44q15 6 15 -7v-68q0 -10 -9 -14l-110 -52q-9 -5 -18 0z" />
    <glyph glyph-name="uni0163.sc" horiz-adv-x="490" 
d="M188 0q-12 0 -12 12v413h-145q-12 0 -12 11v96q0 12 12 12h428q12 0 12 -12v-96q0 -11 -12 -11h-145v-413q0 -12 -12 -12h-114zM220 -197q-17 0 -30 1.5t-25 3.5q-10 1 -10 10v52q0 10 9 9q6 -1 15 -1.5t16 -0.5q20 0 28.5 6.5t8.5 16.5v8q0 12 -7.5 17t-23.5 5h-22
q-7 0 -7 6q0 5 0.5 11.5t1.5 10.5l25 80q3 8 12 8h72q10 0 6 -13l-22 -65h8q28 0 44 -17t16 -46v-17q0 -40 -27.5 -62.5t-87.5 -22.5z" />
    <glyph glyph-name="uni021B.sc" horiz-adv-x="490" 
d="M188 0q-12 0 -12 12v413h-145q-12 0 -12 11v96q0 12 12 12h428q12 0 12 -12v-96q0 -11 -12 -11h-145v-413q0 -12 -12 -12h-114zM206 -255q-10 0 -7 11l13 70q-15 5 -23 18t-8 33v18q0 28 16.5 42.5t46.5 14.5q33 0 49 -14.5t16 -42.5v-20q0 -13 -2 -25.5t-7 -27.5
l-23 -69q-3 -8 -13 -8h-58z" />
    <glyph glyph-name="u.sc" horiz-adv-x="584" 
d="M292 -12q-116 0 -176.5 51.5t-60.5 164.5v328q0 12 12 12h114q12 0 12 -12v-322q0 -49 23.5 -76t75.5 -27t76 27t24 76v322q0 12 11 12h114q12 0 12 -12v-328q0 -113 -60.5 -164.5t-176.5 -51.5z" />
    <glyph glyph-name="uacute.sc" horiz-adv-x="584" 
d="M292 -12q-116 0 -176.5 51.5t-60.5 164.5v328q0 12 12 12h114q12 0 12 -12v-322q0 -49 23.5 -76t75.5 -27t76 27t24 76v322q0 12 11 12h114q12 0 12 -12v-328q0 -113 -60.5 -164.5t-176.5 -51.5zM222 596q-17 0 -8 15l59 109q5 9 16 9h92q8 0 9.5 -4.5t-2.5 -10.5
l-84 -110q-5 -8 -15 -8h-67z" />
    <glyph glyph-name="ucircumflex.sc" horiz-adv-x="584" 
d="M292 -12q-116 0 -176.5 51.5t-60.5 164.5v328q0 12 12 12h114q12 0 12 -12v-322q0 -49 23.5 -76t75.5 -27t76 27t24 76v322q0 12 11 12h114q12 0 12 -12v-328q0 -113 -60.5 -164.5t-176.5 -51.5zM179 597q-14 -6 -14 7v68q0 10 9 14l110 52q9 5 18 0l110 -52q9 -4 9 -14
v-68q0 -13 -15 -7l-113 44z" />
    <glyph glyph-name="udieresis.sc" horiz-adv-x="584" 
d="M292 -12q-116 0 -176.5 51.5t-60.5 164.5v328q0 12 12 12h114q12 0 12 -12v-322q0 -49 23.5 -76t75.5 -27t76 27t24 76v322q0 12 11 12h114q12 0 12 -12v-328q0 -113 -60.5 -164.5t-176.5 -51.5zM192 607q-34 0 -52 17.5t-18 46.5v17q0 31 18 48t52 17q36 0 53.5 -17
t17.5 -48v-17q0 -29 -17.5 -46.5t-53.5 -17.5zM391 607q-34 0 -52 17.5t-18 46.5v17q0 31 18 48t52 17q35 0 53 -17t18 -48v-17q0 -29 -18 -46.5t-53 -17.5z" />
    <glyph glyph-name="ugrave.sc" horiz-adv-x="584" 
d="M292 -12q-116 0 -176.5 51.5t-60.5 164.5v328q0 12 12 12h114q12 0 12 -12v-322q0 -49 23.5 -76t75.5 -27t76 27t24 76v322q0 12 11 12h114q12 0 12 -12v-328q0 -113 -60.5 -164.5t-176.5 -51.5zM291 596q-11 0 -16 8l-84 110q-5 7 -3 11.5t10 4.5h92q11 0 16 -10
l60 -109q8 -15 -8 -15h-67z" />
    <glyph glyph-name="uhungarumlaut.sc" horiz-adv-x="584" 
d="M292 -12q-116 0 -176.5 51.5t-60.5 164.5v328q0 12 12 12h114q12 0 12 -12v-322q0 -49 23.5 -76t75.5 -27t76 27t24 76v322q0 12 11 12h114q12 0 12 -12v-328q0 -113 -60.5 -164.5t-176.5 -51.5zM333 596q-14 0 -9 13l48 112q4 10 15 10h92q16 0 8 -15l-62 -111
q-5 -9 -16 -9h-76zM169 596q-14 0 -8 13l47 112q4 10 15 10h93q15 0 7 -15l-62 -111q-5 -9 -16 -9h-76z" />
    <glyph glyph-name="umacron.sc" horiz-adv-x="584" 
d="M292 -12q-116 0 -176.5 51.5t-60.5 164.5v328q0 12 12 12h114q12 0 12 -12v-322q0 -49 23.5 -76t75.5 -27t76 27t24 76v322q0 12 11 12h114q12 0 12 -12v-328q0 -113 -60.5 -164.5t-176.5 -51.5zM190 600q-13 0 -13 13v71q0 13 13 13h204q13 0 13 -13v-71q0 -13 -13 -13
h-204z" />
    <glyph glyph-name="uogonek.sc" horiz-adv-x="584" 
d="M292 -12q-116 0 -176.5 51.5t-60.5 164.5v328q0 12 12 12h114q12 0 12 -12v-322q0 -49 23.5 -76t75.5 -27t76 27t24 76v322q0 12 11 12h114q12 0 12 -12v-328q0 -113 -60.5 -164.5t-176.5 -51.5zM343 -199q-51 0 -80 23.5t-29 60.5v11q0 46 38.5 79.5t109.5 51.5l16 -15
l-2 -11q-27 -11 -41.5 -28.5t-14.5 -38.5v-6q0 -26 33 -26q8 0 15 0.5t15 1.5q10 2 10 -9v-75q0 -6 -1.5 -8t-8.5 -4q-14 -4 -30 -5.5t-30 -1.5z" />
    <glyph glyph-name="uring.sc" horiz-adv-x="584" 
d="M292 -12q-116 0 -176.5 51.5t-60.5 164.5v328q0 12 12 12h114q12 0 12 -12v-322q0 -49 23.5 -76t75.5 -27t76 27t24 76v322q0 12 11 12h114q12 0 12 -12v-328q0 -113 -60.5 -164.5t-176.5 -51.5zM292 578q-55 0 -88.5 26t-33.5 81q0 54 33.5 80t88.5 26t88.5 -26
t33.5 -80q0 -55 -33 -81t-89 -26zM292 649q18 0 26.5 9.5t8.5 28.5q0 18 -8.5 27.5t-26.5 9.5t-26 -9.5t-8 -27.5q0 -19 8 -28.5t26 -9.5z" />
    <glyph glyph-name="v.sc" horiz-adv-x="550" 
d="M201 0q-10 0 -13 9l-184 521q-4 14 10 14h128q11 0 14 -10l90 -297q9 -30 15.5 -60.5t13.5 -61.5h2q6 30 13 60t16 60l91 300q3 9 13 9h127q14 0 9 -13l-182 -522q-4 -9 -14 -9h-149z" />
    <glyph glyph-name="w.sc" horiz-adv-x="794" 
d="M171 0q-10 0 -13 10l-149 521q-3 13 11 13h110q12 0 14 -9l71 -268q8 -33 15.5 -68t12.5 -62h2q7 26 15.5 52.5t17.5 53.5l62 180l-32 94q-3 7 0.5 10t9.5 3h109q10 0 13 -10l78 -256q9 -29 18 -64t15 -63h2q6 29 12 60.5t15 72.5l69 264q2 10 13 10h111q15 0 11 -13
l-147 -521q-3 -10 -13 -10h-131q-10 0 -13 11l-47 155q-8 28 -15.5 54.5t-15.5 54.5h-2q-8 -27 -17 -54.5t-19 -54.5l-52 -157q-4 -9 -14 -9h-127z" />
    <glyph glyph-name="wacute.sc" horiz-adv-x="794" 
d="M171 0q-10 0 -13 10l-149 521q-3 13 11 13h110q12 0 14 -9l71 -268q8 -33 15.5 -68t12.5 -62h2q7 26 15.5 52.5t17.5 53.5l62 180l-32 94q-3 7 0.5 10t9.5 3h109q10 0 13 -10l78 -256q9 -29 18 -64t15 -63h2q6 29 12 60.5t15 72.5l69 264q2 10 13 10h111q15 0 11 -13
l-147 -521q-3 -10 -13 -10h-131q-10 0 -13 11l-47 155q-8 28 -15.5 54.5t-15.5 54.5h-2q-8 -27 -17 -54.5t-19 -54.5l-52 -157q-4 -9 -14 -9h-127zM327 596q-17 0 -8 15l59 109q5 9 16 9h92q8 0 9.5 -4.5t-2.5 -10.5l-84 -110q-5 -8 -15 -8h-67z" />
    <glyph glyph-name="wcircumflex.sc" horiz-adv-x="794" 
d="M171 0q-10 0 -13 10l-149 521q-3 13 11 13h110q12 0 14 -9l71 -268q8 -33 15.5 -68t12.5 -62h2q7 26 15.5 52.5t17.5 53.5l62 180l-32 94q-3 7 0.5 10t9.5 3h109q10 0 13 -10l78 -256q9 -29 18 -64t15 -63h2q6 29 12 60.5t15 72.5l69 264q2 10 13 10h111q15 0 11 -13
l-147 -521q-3 -10 -13 -10h-131q-10 0 -13 11l-47 155q-8 28 -15.5 54.5t-15.5 54.5h-2q-8 -27 -17 -54.5t-19 -54.5l-52 -157q-4 -9 -14 -9h-127zM283 597q-14 -6 -14 7v68q0 10 9 14l110 52q9 5 18 0l110 -52q9 -4 9 -14v-68q0 -13 -15 -7l-113 44z" />
    <glyph glyph-name="wdieresis.sc" horiz-adv-x="794" 
d="M171 0q-10 0 -13 10l-149 521q-3 13 11 13h110q12 0 14 -9l71 -268q8 -33 15.5 -68t12.5 -62h2q7 26 15.5 52.5t17.5 53.5l62 180l-32 94q-3 7 0.5 10t9.5 3h109q10 0 13 -10l78 -256q9 -29 18 -64t15 -63h2q6 29 12 60.5t15 72.5l69 264q2 10 13 10h111q15 0 11 -13
l-147 -521q-3 -10 -13 -10h-131q-10 0 -13 11l-47 155q-8 28 -15.5 54.5t-15.5 54.5h-2q-8 -27 -17 -54.5t-19 -54.5l-52 -157q-4 -9 -14 -9h-127zM297 607q-34 0 -52 17.5t-18 46.5v17q0 31 18 48t52 17q36 0 53.5 -17t17.5 -48v-17q0 -29 -17.5 -46.5t-53.5 -17.5z
M496 607q-34 0 -52 17.5t-18 46.5v17q0 31 18 48t52 17q35 0 53 -17t18 -48v-17q0 -29 -18 -46.5t-53 -17.5z" />
    <glyph glyph-name="wgrave.sc" horiz-adv-x="794" 
d="M171 0q-10 0 -13 10l-149 521q-3 13 11 13h110q12 0 14 -9l71 -268q8 -33 15.5 -68t12.5 -62h2q7 26 15.5 52.5t17.5 53.5l62 180l-32 94q-3 7 0.5 10t9.5 3h109q10 0 13 -10l78 -256q9 -29 18 -64t15 -63h2q6 29 12 60.5t15 72.5l69 264q2 10 13 10h111q15 0 11 -13
l-147 -521q-3 -10 -13 -10h-131q-10 0 -13 11l-47 155q-8 28 -15.5 54.5t-15.5 54.5h-2q-8 -27 -17 -54.5t-19 -54.5l-52 -157q-4 -9 -14 -9h-127zM396 596q-11 0 -16 8l-84 110q-5 7 -3 11.5t10 4.5h92q11 0 16 -10l60 -109q8 -15 -8 -15h-67z" />
    <glyph glyph-name="x.sc" horiz-adv-x="537" 
d="M11 0q-7 0 -9.5 4t1.5 10l185 265l-174 251q-3 7 -1.5 10.5t8.5 3.5h136q9 0 14 -8l57 -89q11 -17 21 -36t21 -42h2q11 23 21 42t21 37l56 89q5 7 15 7h132q7 0 9 -3.5t-2 -10.5l-173 -251l182 -265q5 -6 2.5 -10t-9.5 -4h-136q-9 0 -14 8l-56 88q-13 21 -26 43t-25 47
h-2q-12 -25 -25.5 -47.5t-26.5 -44.5l-56 -86q-4 -8 -15 -8h-133z" />
    <glyph glyph-name="y.sc" horiz-adv-x="528" 
d="M209 0q-13 0 -13 12v177l-193 341q-3 7 0 10.5t9 3.5h129q8 0 14 -8l67 -130q12 -22 23 -46.5t21 -54.5h2q11 31 21.5 55t21.5 45l65 131q4 8 14 8h127q7 0 9 -3.5t-1 -10.5l-191 -341v-177q0 -12 -11 -12h-114z" />
    <glyph glyph-name="yacute.sc" horiz-adv-x="528" 
d="M209 0q-13 0 -13 12v177l-193 341q-3 7 0 10.5t9 3.5h129q8 0 14 -8l67 -130q12 -22 23 -46.5t21 -54.5h2q11 31 21.5 55t21.5 45l65 131q4 8 14 8h127q7 0 9 -3.5t-1 -10.5l-191 -341v-177q0 -12 -11 -12h-114zM194 596q-17 0 -8 15l59 109q5 9 16 9h92q8 0 9.5 -4.5
t-2.5 -10.5l-84 -110q-5 -8 -15 -8h-67z" />
    <glyph glyph-name="ycircumflex.sc" horiz-adv-x="528" 
d="M209 0q-13 0 -13 12v177l-193 341q-3 7 0 10.5t9 3.5h129q8 0 14 -8l67 -130q12 -22 23 -46.5t21 -54.5h2q11 31 21.5 55t21.5 45l65 131q4 8 14 8h127q7 0 9 -3.5t-1 -10.5l-191 -341v-177q0 -12 -11 -12h-114zM151 597q-14 -6 -14 7v68q0 10 9 14l110 52q9 5 18 0
l110 -52q9 -4 9 -14v-68q0 -13 -15 -7l-113 44z" />
    <glyph glyph-name="ydieresis.sc" horiz-adv-x="528" 
d="M209 0q-13 0 -13 12v177l-193 341q-3 7 0 10.5t9 3.5h129q8 0 14 -8l67 -130q12 -22 23 -46.5t21 -54.5h2q11 31 21.5 55t21.5 45l65 131q4 8 14 8h127q7 0 9 -3.5t-1 -10.5l-191 -341v-177q0 -12 -11 -12h-114zM164 607q-34 0 -52 17.5t-18 46.5v17q0 31 18 48t52 17
q36 0 53.5 -17t17.5 -48v-17q0 -29 -17.5 -46.5t-53.5 -17.5zM363 607q-34 0 -52 17.5t-18 46.5v17q0 31 18 48t52 17q35 0 53 -17t18 -48v-17q0 -29 -18 -46.5t-53 -17.5z" />
    <glyph glyph-name="ygrave.sc" horiz-adv-x="528" 
d="M209 0q-13 0 -13 12v177l-193 341q-3 7 0 10.5t9 3.5h129q8 0 14 -8l67 -130q12 -22 23 -46.5t21 -54.5h2q11 31 21.5 55t21.5 45l65 131q4 8 14 8h127q7 0 9 -3.5t-1 -10.5l-191 -341v-177q0 -12 -11 -12h-114zM263 596q-11 0 -16 8l-84 110q-5 7 -3 11.5t10 4.5h92
q11 0 16 -10l60 -109q8 -15 -8 -15h-67z" />
    <glyph glyph-name="z.sc" horiz-adv-x="496" 
d="M18 0q-12 0 -12 11v7q0 9 4 15l210 313q13 20 26.5 39t27.5 39v3q-24 -1 -47.5 -1h-47.5h-135q-12 0 -12 10v96q0 12 12 12h431q12 0 12 -12v-7q0 -8 -5 -14l-206 -304q-14 -22 -30 -44t-31 -44v-2q25 0 49.5 0.5t50.5 0.5h138q13 0 13 -11v-95q0 -12 -13 -12h-435z" />
    <glyph glyph-name="zacute.sc" horiz-adv-x="496" 
d="M18 0q-12 0 -12 11v7q0 9 4 15l210 313q13 20 26.5 39t27.5 39v3q-24 -1 -47.5 -1h-47.5h-135q-12 0 -12 10v96q0 12 12 12h431q12 0 12 -12v-7q0 -8 -5 -14l-206 -304q-14 -22 -30 -44t-31 -44v-2q25 0 49.5 0.5t50.5 0.5h138q13 0 13 -11v-95q0 -12 -13 -12h-435z
M177 596q-17 0 -8 15l59 109q5 9 16 9h92q8 0 9.5 -4.5t-2.5 -10.5l-84 -110q-5 -8 -15 -8h-67z" />
    <glyph glyph-name="zcaron.sc" horiz-adv-x="496" 
d="M18 0q-12 0 -12 11v7q0 9 4 15l210 313q13 20 26.5 39t27.5 39v3q-24 -1 -47.5 -1h-47.5h-135q-12 0 -12 10v96q0 12 12 12h431q12 0 12 -12v-7q0 -8 -5 -14l-206 -304q-14 -22 -30 -44t-31 -44v-2q25 0 49.5 0.5t50.5 0.5h138q13 0 13 -11v-95q0 -12 -13 -12h-435z
M238 598l-110 52q-9 4 -9 14v68q0 13 14 7l114 -44l113 44q15 6 15 -7v-68q0 -10 -9 -14l-110 -52q-9 -5 -18 0z" />
    <glyph glyph-name="zdotaccent.sc" horiz-adv-x="496" 
d="M18 0q-12 0 -12 11v7q0 9 4 15l210 313q13 20 26.5 39t27.5 39v3q-24 -1 -47.5 -1h-47.5h-135q-12 0 -12 10v96q0 12 12 12h431q12 0 12 -12v-7q0 -8 -5 -14l-206 -304q-14 -22 -30 -44t-31 -44v-2q25 0 49.5 0.5t50.5 0.5h138q13 0 13 -11v-95q0 -12 -13 -12h-435z
M247 608q-37 0 -57 19t-20 50v18q0 33 20 51.5t57 18.5q38 0 57.5 -18.5t19.5 -51.5v-18q0 -31 -19.5 -50t-57.5 -19z" />
    <glyph glyph-name="ordfeminine" unicode="&#xaa;" horiz-adv-x="406" 
d="M139 307q-39 0 -65 24t-26 75q0 59 36 82.5t112 30.5l50 5v21q0 23 -9 33.5t-35 10.5q-44 0 -42 -32q2 -11 -11 -11h-73q-12 0 -12 13q-5 54 34 81t107 27q78 0 111 -31.5t33 -93.5v-137q0 -24 1.5 -42.5t2.5 -36.5q1 -11 -10 -11h-71q-5 0 -7.5 3t-3.5 8q-2 6 -3 16.5
t-3 21.5q-26 -26 -53 -41.5t-63 -15.5zM68 166q-13 0 -13 13v73q0 13 13 13h277q13 0 13 -13v-73q0 -13 -13 -13h-277zM176 384q16 0 34 9.5t36 27.5v47l-42 -5q-30 -2 -44 -13t-14 -33q0 -17 8 -25t22 -8z" />
    <glyph glyph-name="ordmasculine" unicode="&#xba;" horiz-adv-x="404" 
d="M201 306q-72 0 -112.5 42t-40.5 115v47q0 73 40.5 115t112.5 42q73 0 114.5 -42t41.5 -115v-47q0 -73 -41.5 -115t-114.5 -42zM69 166q-13 0 -13 13v73q0 13 13 13h266q13 0 13 -13v-73q0 -13 -13 -13h-266zM201 403q26 0 41 15.5t15 43.5v49q0 29 -15 44t-41 15
q-25 0 -39 -15t-14 -44v-49q0 -29 14 -44t39 -15z" />
    <glyph glyph-name="uni0410" unicode="&#x410;" horiz-adv-x="604" 
d="M8 0q-14 0 -10 14l212 631q4 10 15 10h153q11 0 14 -10l214 -631q4 -14 -10 -14h-129q-11 0 -14 10l-115 387q-10 34 -19 68.5t-18 68.5h-2q-9 -34 -18 -68.5t-19 -68.5l-113 -386q-3 -11 -14 -11h-127zM162 127l24 114h225l26 -114h-275z" />
    <glyph glyph-name="uni0411" unicode="&#x411;" horiz-adv-x="590" 
d="M79 0q-13 0 -13 13v629q0 13 13 13h393q13 0 13 -13v-99q0 -12 -13 -12h-263v-117h93q130 0 191.5 -50t61.5 -146q0 -107 -62.5 -162.5t-197.5 -55.5h-216zM209 116h84q60 0 90 23t30 75q0 50 -29 71t-89 21h-86v-190z" />
    <glyph glyph-name="uni0412" unicode="&#x412;" horiz-adv-x="597" 
d="M79 0q-13 0 -13 13v629q0 13 13 13h212q121 0 182.5 -40t61.5 -121q0 -58 -26 -92.5t-80 -54.5v-3q64 -12 99 -49t35 -104q0 -101 -64.5 -146t-208.5 -45h-211zM209 117h87q66 0 95 18.5t29 63.5q0 42 -29.5 62t-94.5 20h-87v-164zM209 386h79q55 0 79.5 19.5t24.5 59.5
q0 38 -26.5 56t-83.5 18h-73v-153z" />
    <glyph glyph-name="uni0413" unicode="&#x413;" horiz-adv-x="478" 
d="M79 0q-13 0 -13 13v629q0 13 13 13h366q12 0 12 -13v-99q0 -12 -12 -12h-236v-518q0 -13 -13 -13h-117z" />
    <glyph glyph-name="uni0403" unicode="&#x403;" horiz-adv-x="478" 
d="M79 0q-13 0 -13 13v629q0 13 13 13h366q12 0 12 -13v-99q0 -12 -12 -12h-236v-518q0 -13 -13 -13h-117zM198 708q-6 0 -8 3.5t1 9.5l61 112q5 10 14 10h104q6 0 7.5 -4.5t-2.5 -10.5l-84 -113q-5 -7 -14 -7h-79z" />
    <glyph glyph-name="uni0490" unicode="&#x490;" horiz-adv-x="478" 
d="M79 0q-13 0 -13 13v629q0 13 13 13h366q12 0 12 -13v-99q0 -12 -12 -12h-236v-518q0 -13 -13 -13h-117zM319 553v234q0 5 4 9t9 4h112q6 0 9.5 -4t3.5 -9v-234h-138z" />
    <glyph glyph-name="uni0414" unicode="&#x414;" horiz-adv-x="649" 
d="M186 35l-149 2l196 608q3 10 15 10h152q12 0 15 -10l197 -608l-151 -2l-95 339q-11 40 -21.5 80t-20.5 80h-2q-10 -41 -21 -81.5t-22 -81.5zM13 -140q-5 0 -9 4t-4 9v241q0 5 4 8.5t9 3.5h624q5 0 8.5 -3.5t3.5 -8.5v-241q0 -5 -3.5 -9t-8.5 -4h-114q-5 0 -9 4t-4 9v127
h-371v-127q0 -5 -3.5 -9t-9.5 -4h-113z" />
    <glyph glyph-name="uni0415" unicode="&#x415;" horiz-adv-x="544" 
d="M79 0q-13 0 -13 13v629q0 13 13 13h399q13 0 13 -13v-99q0 -12 -13 -12h-269v-142h245q13 0 13 -13v-92q0 -12 -13 -12h-245v-148h269q13 0 13 -12v-99q0 -13 -13 -13h-399z" />
    <glyph glyph-name="uni0400" unicode="&#x400;" horiz-adv-x="544" 
d="M79 0q-13 0 -13 13v629q0 13 13 13h399q13 0 13 -13v-99q0 -12 -13 -12h-269v-142h245q13 0 13 -13v-92q0 -12 -13 -12h-245v-148h269q13 0 13 -12v-99q0 -13 -13 -13h-399zM265 708q-9 0 -14 7l-84 113q-4 6 -2 10.5t8 4.5h103q11 0 15 -10l60 -112q3 -6 1.5 -9.5
t-7.5 -3.5h-80z" />
    <glyph glyph-name="uni0401" unicode="&#x401;" horiz-adv-x="544" 
d="M79 0q-13 0 -13 13v629q0 13 13 13h399q13 0 13 -13v-99q0 -12 -13 -12h-269v-142h245q13 0 13 -13v-92q0 -12 -13 -12h-245v-148h269q13 0 13 -12v-99q0 -13 -13 -13h-399zM176 708q-34 0 -52 17.5t-18 47.5v17q0 31 18 47.5t52 16.5q36 0 53.5 -16.5t17.5 -47.5v-17
q0 -30 -17.5 -47.5t-53.5 -17.5zM375 708q-34 0 -52 17.5t-18 47.5v17q0 31 18 47.5t52 16.5q35 0 53 -16.5t18 -47.5v-17q0 -30 -18 -47.5t-53 -17.5z" />
    <glyph glyph-name="uni0416" unicode="&#x416;" horiz-adv-x="898" 
d="M30 0q-7 0 -10 4.5t1 10.5l169 325l-151 300q-3 6 -0.5 10.5t9.5 4.5h131q5 0 10 -2t6 -6l118 -263h68v258q0 13 13 13h111q13 0 13 -13v-258h68l118 263q2 4 6.5 6t9.5 2h131q7 0 9.5 -4.5t-1.5 -10.5l-150 -300l169 -325q4 -6 0.5 -10.5t-9.5 -4.5h-139q-11 0 -15 9
l-126 257h-71v-253q0 -13 -13 -13h-111q-13 0 -13 13v253h-71l-126 -257q-5 -9 -16 -9h-138z" />
    <glyph glyph-name="uni0417" unicode="&#x417;" horiz-adv-x="595" 
d="M278 -12q-122 0 -183.5 46t-54.5 138q1 12 4.5 17t9.5 5h106q12 0 12 -9q0 -40 25.5 -58.5t83.5 -18.5q69 0 99.5 21.5t30.5 67.5q0 40 -26.5 58.5t-86.5 18.5h-101q-13 0 -13 13v85q0 12 13 12h74q62 0 89 19.5t27 61.5q0 44 -25 64t-86 20q-52 0 -76 -17t-24 -53
q0 -14 -13 -14h-106q-5 0 -8.5 5t-4.5 17q-4 89 56.5 134.5t184.5 45.5q123 0 183.5 -44t60.5 -132q0 -54 -26.5 -93.5t-76.5 -56.5v-2q64 -13 96 -52t32 -96q0 -98 -69.5 -150.5t-206.5 -52.5z" />
    <glyph glyph-name="uni0418" unicode="&#x418;" horiz-adv-x="669" 
d="M79 0q-13 0 -13 13v629q0 13 13 13h113q12 0 12 -13v-240q0 -45 -1.5 -81.5t-4.5 -68t-6 -63.5h3q13 31 27.5 62t35 67t48.5 84l144 244q6 9 15 9h125q13 0 13 -13v-629q0 -13 -13 -13h-112q-12 0 -12 13v228q0 61 2.5 117t7.5 103h-3q-12 -28 -27 -56.5t-37 -67
t-56 -96.5l-134 -232q-5 -9 -15 -9h-125z" />
    <glyph glyph-name="uni0419" unicode="&#x419;" horiz-adv-x="669" 
d="M79 0q-13 0 -13 13v629q0 13 13 13h113q12 0 12 -13v-240q0 -45 -1.5 -81.5t-4.5 -68t-6 -63.5h3q13 31 27.5 62t35 67t48.5 84l144 244q6 9 15 9h125q13 0 13 -13v-629q0 -13 -13 -13h-112q-12 0 -12 13v228q0 61 2.5 117t7.5 103h-3q-12 -28 -27 -56.5t-37 -67
t-56 -96.5l-134 -232q-5 -9 -15 -9h-125zM335 709q-47 0 -86 17.5t-55 32.5q-5 4 -5 14v73q0 9 4 11t10 -3q21 -15 57.5 -31.5t74.5 -16.5q39 0 75 16.5t57 31.5q6 5 10 3t4 -11v-73q0 -10 -5 -14q-16 -15 -55 -32.5t-86 -17.5z" />
    <glyph glyph-name="uni040D" unicode="&#x40d;" horiz-adv-x="669" 
d="M79 0q-13 0 -13 13v629q0 13 13 13h113q12 0 12 -13v-240q0 -45 -1.5 -81.5t-4.5 -68t-6 -63.5h3q13 31 27.5 62t35 67t48.5 84l144 244q6 9 15 9h125q13 0 13 -13v-629q0 -13 -13 -13h-112q-12 0 -12 13v228q0 61 2.5 117t7.5 103h-3q-12 -28 -27 -56.5t-37 -67
t-56 -96.5l-134 -232q-5 -9 -15 -9h-125zM324 708q-9 0 -14 7l-84 113q-4 6 -2 10.5t8 4.5h103q11 0 15 -10l60 -112q3 -6 1.5 -9.5t-7.5 -3.5h-80z" />
    <glyph glyph-name="uni041A" unicode="&#x41a;" horiz-adv-x="616" 
d="M79 0q-13 0 -13 13v629q0 13 13 13h117q13 0 13 -13v-256h59l171 261q5 8 15 8h132q8 0 10 -4.5t-2 -10.5l-203 -299l225 -326q5 -6 2 -10.5t-10 -4.5h-141q-11 0 -16 8l-177 256h-65v-251q0 -13 -13 -13h-117z" />
    <glyph glyph-name="uni040C" unicode="&#x40c;" horiz-adv-x="616" 
d="M79 0q-13 0 -13 13v629q0 13 13 13h117q13 0 13 -13v-256h59l171 261q5 8 15 8h132q8 0 10 -4.5t-2 -10.5l-203 -299l225 -326q5 -6 2 -10.5t-10 -4.5h-141q-11 0 -16 8l-177 256h-65v-251q0 -13 -13 -13h-117zM237 708q-6 0 -8 3.5t1 9.5l61 112q5 10 14 10h104
q6 0 7.5 -4.5t-2.5 -10.5l-84 -113q-5 -7 -14 -7h-79z" />
    <glyph glyph-name="uni041B" unicode="&#x41b;" horiz-adv-x="598" 
d="M8 0q-14 0 -10 14l209 631q4 10 15 10h153q11 0 14 -10l211 -631q4 -14 -10 -14h-129q-11 0 -14 10l-113 387q-10 34 -18.5 68.5t-17.5 68.5h-2q-9 -34 -17 -69t-18 -69l-112 -385q-3 -11 -14 -11h-127z" />
    <glyph glyph-name="uni041C" unicode="&#x41c;" horiz-adv-x="796" 
d="M66 0q-13 0 -13 13l13 629q0 13 13 13h144q10 0 14 -10l162 -346l160 346q5 10 15 10h143q12 0 12 -13l14 -629q0 -13 -13 -13h-114q-13 0 -13 13l-6 273q-1 41 0.5 84.5t3.5 84.5h-3q-17 -40 -36 -82t-39 -81l-108 -219q-4 -8 -15 -8h-5q-10 0 -14 8l-109 221
q-19 39 -38 80.5t-35 80.5h-3q2 -41 3 -84t0 -83l-6 -275q0 -13 -13 -13h-114z" />
    <glyph glyph-name="uni041D" unicode="&#x41d;" horiz-adv-x="672" 
d="M79 0q-13 0 -13 13v629q0 13 13 13h117q13 0 13 -13v-249h255v249q0 13 13 13h116q13 0 13 -13v-629q0 -13 -13 -13h-116q-13 0 -13 13v257h-255v-257q0 -13 -13 -13h-117z" />
    <glyph glyph-name="uni041E" unicode="&#x41e;" horiz-adv-x="657" 
d="M328 -12q-135 0 -204.5 65t-69.5 189v171q0 125 69.5 189.5t204.5 64.5q136 0 205.5 -64.5t69.5 -189.5v-171q0 -124 -69.5 -189t-205.5 -65zM328 112q67 0 99.5 35.5t32.5 102.5v155q0 67 -32.5 102.5t-99.5 35.5q-65 0 -98 -35.5t-33 -102.5v-155q0 -67 33 -102.5
t98 -35.5z" />
    <glyph glyph-name="uni041F" unicode="&#x41f;" horiz-adv-x="670" 
d="M79 0q-13 0 -13 13v629q0 13 13 13h512q12 0 12 -13v-629q0 -13 -12 -13h-117q-13 0 -13 13v518h-252v-518q0 -13 -13 -13h-117z" />
    <glyph glyph-name="uni0420" unicode="&#x420;" horiz-adv-x="567" 
d="M79 0q-13 0 -13 13v629q0 13 13 13h198q136 0 198 -56t62 -164q0 -104 -64.5 -161t-194.5 -57h-69v-204q0 -13 -13 -13h-117zM209 338h67q59 0 88.5 22.5t29.5 73.5q0 53 -29 76t-89 23h-67v-195z" />
    <glyph glyph-name="uni0421" unicode="&#x421;" horiz-adv-x="650" 
d="M326 -12q-130 0 -201 63.5t-71 190.5v169q0 129 71.5 192.5t201.5 63.5q91 0 155 -29t94.5 -82.5t20.5 -125.5q-1 -5 -4 -9.5t-9 -4.5h-118q-12 0 -11 13q1 53 -29.5 84t-96.5 31q-63 0 -97.5 -33.5t-34.5 -103.5v-159q0 -70 34.5 -103.5t97.5 -33.5q68 0 98.5 32.5
t27.5 82.5q-1 13 11 13h117q12 0 14 -14q7 -72 -24 -125.5t-94 -82.5t-153 -29z" />
    <glyph glyph-name="uni0422" unicode="&#x422;" horiz-adv-x="551" 
d="M217 0q-12 0 -12 13v518h-169q-12 0 -12 12v99q0 13 12 13h479q12 0 12 -13v-99q0 -12 -12 -12h-168v-518q0 -13 -13 -13h-117z" />
    <glyph glyph-name="uni0423" unicode="&#x423;" horiz-adv-x="590" 
d="M132 0q-7 0 -10 4.5t0 10.5l102 209l-212 416q-3 6 0 10.5t10 4.5h130q11 0 15 -9l86 -181q12 -26 22.5 -52t20.5 -57h3q11 31 22 57.5t24 53.5l87 179q4 9 15 9h127q7 0 10 -4.5t0 -10.5l-319 -631q-5 -9 -15 -9h-118z" />
    <glyph glyph-name="uni040E" unicode="&#x40e;" horiz-adv-x="590" 
d="M132 0q-7 0 -10 4.5t0 10.5l102 209l-212 416q-3 6 0 10.5t10 4.5h130q11 0 15 -9l86 -181q12 -26 22.5 -52t20.5 -57h3q11 31 22 57.5t24 53.5l87 179q4 9 15 9h127q7 0 10 -4.5t0 -10.5l-319 -631q-5 -9 -15 -9h-118zM298 709q-47 0 -86 17.5t-55 32.5q-5 4 -5 14v73
q0 9 4 11t10 -3q21 -15 57.5 -31.5t74.5 -16.5q39 0 75 16.5t57 31.5q6 5 10 3t4 -11v-73q0 -10 -5 -14q-16 -15 -55 -32.5t-86 -17.5z" />
    <glyph glyph-name="uni0424" unicode="&#x424;" horiz-adv-x="849" 
d="M381 -12q-103 0 -176 29t-112 87t-39 145v157q0 87 39 145t112.5 87t177.5 29h83q104 0 177.5 -29t112.5 -87t39 -145v-157q0 -87 -38.5 -145t-112 -87t-176.5 -29h-87zM376 110h97q62 0 102.5 16t60.5 49.5t20 87.5v129q0 53 -20 87t-60.5 50t-102.5 16h-97
q-61 0 -102 -16t-61 -50t-20 -87v-129q0 -54 20 -87.5t61 -49.5t102 -16zM366 -76q-13 0 -13 13v112l4 41v475l-4 41v112q0 13 13 13h117q13 0 13 -13v-112l-5 -39v-479l5 -39v-112q0 -13 -13 -13h-117z" />
    <glyph glyph-name="uni0425" unicode="&#x425;" horiz-adv-x="594" 
d="M13 0q-8 0 -10 4.5t2 10.5l209 321l-196 304q-4 6 -2 10.5t9 4.5h139q10 0 14 -8l79 -128q11 -18 21.5 -39t19.5 -40h3q9 20 21.5 43t22.5 40l75 124q5 8 15 8h135q7 0 9.5 -4.5t-2.5 -10.5l-195 -305l207 -320q4 -6 1.5 -10.5t-9.5 -4.5h-139q-10 0 -16 8l-83 136
q-10 17 -22.5 40.5t-23.5 45.5h-2q-11 -21 -23 -44t-22 -39l-85 -138q-5 -9 -16 -9h-136z" />
    <glyph glyph-name="uni0427" unicode="&#x427;" horiz-adv-x="642" 
d="M244 191q-90 0 -139 45.5t-49 151.5v254q0 13 13 13h117q13 0 13 -13v-230q0 -57 23.5 -77t67.5 -20q39 0 81.5 16t76.5 44v-117q-25 -18 -59 -33.5t-71.5 -24.5t-73.5 -9zM446 0q-13 0 -13 13v629q0 13 13 13h117q13 0 13 -13v-629q0 -13 -13 -13h-117z" />
    <glyph glyph-name="uni0426" unicode="&#x426;" horiz-adv-x="684" 
d="M542 -140q-5 0 -9 4t-4 9v127h-450q-13 0 -13 13v629q0 13 13 13h117q13 0 13 -13v-516h245v516q0 13 13 13h117q13 0 13 -13v-516h58q6 0 9.5 -3.5t3.5 -8.5v-241q0 -5 -3.5 -9t-9.5 -4h-113z" />
    <glyph glyph-name="uni0428" unicode="&#x428;" horiz-adv-x="907" 
d="M79 0q-13 0 -13 13v629q0 13 13 13h117q13 0 13 -13v-516h174v516q0 13 13 13h116q13 0 13 -13v-516h174v516q0 13 12 13h117q13 0 13 -13v-629q0 -13 -13 -13h-749z" />
    <glyph glyph-name="uni0429" unicode="&#x429;" horiz-adv-x="928" 
d="M785 -140q-5 0 -9 4t-4 9v127h-693q-13 0 -13 13v629q0 13 13 13h117q13 0 13 -13v-516h174v516q0 13 13 13h116q13 0 13 -13v-516h174v516q0 13 12 13h117q13 0 13 -13v-516h58q5 0 8.5 -3.5t3.5 -8.5v-241q0 -5 -3.5 -9t-8.5 -4h-114z" />
    <glyph glyph-name="uni040F" unicode="&#x40f;" horiz-adv-x="670" 
d="M279 -140q-5 0 -9 4t-4 9v127h-187q-13 0 -13 13v629q0 13 13 13h117q13 0 13 -13v-516h252v516q0 13 13 13h117q12 0 12 -13v-629q0 -5 -3.5 -9t-8.5 -4h-186v-127q0 -5 -3.5 -9t-9.5 -4h-113z" />
    <glyph glyph-name="uni042C" unicode="&#x42c;" horiz-adv-x="583" 
d="M79 0q-13 0 -13 13v629q0 13 13 13h117q13 0 13 -13v-206h86q129 0 192.5 -54t63.5 -158q0 -109 -63.5 -166.5t-197.5 -57.5h-211zM209 122h80q60 0 89.5 24.5t29.5 77.5q0 52 -29.5 73.5t-88.5 21.5h-81v-197z" />
    <glyph glyph-name="uni042A" unicode="&#x42a;" horiz-adv-x="679" 
d="M176 0q-13 0 -13 13v518h-126q-13 0 -13 12v99q0 13 13 13h256q12 0 12 -13v-206h88q128 0 191 -54t63 -158q0 -109 -62.5 -166.5t-197.5 -57.5h-211zM305 122h81q59 0 89 24.5t30 77.5q0 52 -29.5 73.5t-89.5 21.5h-81v-197z" />
    <glyph glyph-name="uni042B" unicode="&#x42b;" horiz-adv-x="857" 
d="M79 0q-13 0 -13 13v629q0 13 13 13h117q13 0 13 -13v-206h86q129 0 192.5 -54t63.5 -158q0 -109 -63.5 -166.5t-197.5 -57.5h-211zM209 122h80q60 0 89.5 24.5t29.5 77.5q0 52 -29.5 73.5t-88.5 21.5h-81v-197zM662 0q-13 0 -13 13v629q0 13 13 13h117q13 0 13 -13v-629
q0 -13 -13 -13h-117z" />
    <glyph glyph-name="uni0409" unicode="&#x409;" horiz-adv-x="906" 
d="M8 0q-14 0 -10 14l209 631q4 10 15 10h153q11 0 14 -10l70 -209h157q131 0 194.5 -54t63.5 -158q0 -109 -63 -166.5t-198 -57.5h-152q-11 0 -14 10l-113 387q-10 34 -18.5 68.5t-17.5 68.5h-2q-9 -34 -17 -69t-18 -69l-112 -385q-3 -11 -14 -11h-127zM563 122h49
q60 0 89.5 24.5t29.5 77.5q0 52 -29 73.5t-89 21.5h-115z" />
    <glyph glyph-name="uni040A" unicode="&#x40a;" horiz-adv-x="980" 
d="M79 0q-13 0 -13 13v629q0 13 13 13h117q13 0 13 -13v-222h254v222q0 13 13 13h117q13 0 13 -13v-222h90q124 0 187.5 -53.5t63.5 -150.5q0 -104 -62.5 -160t-191.5 -56h-217q-13 0 -13 13v290h-254v-290q0 -13 -13 -13h-117zM606 122h87q54 0 83 23t29 70t-29 67.5
t-83 20.5h-87v-181z" />
    <glyph glyph-name="uni0405" unicode="&#x405;" horiz-adv-x="574" 
d="M280 -12q-132 0 -191.5 51t-50.5 149q1 17 14 17h114q13 0 13 -15q-1 -40 25 -60.5t81 -20.5q54 0 79.5 16t25.5 49q0 16 -6 28t-21 22t-41 20l-144 63q-50 21 -79 46.5t-41 58.5t-12 76q1 86 58.5 132.5t171.5 46.5q83 0 139.5 -22t83 -65t20.5 -108q-1 -17 -13 -17
h-115q-6 0 -9.5 4.5t-2.5 12.5q3 34 -24 55t-77 21q-44 0 -66.5 -15.5t-23.5 -45.5q0 -15 6.5 -27t22 -22.5t41.5 -21.5l143 -61q50 -22 79 -47t41 -58t12 -78q-1 -90 -61 -137t-192 -47z" />
    <glyph glyph-name="uni0404" unicode="&#x404;" horiz-adv-x="628" 
d="M322 -12q-134 0 -201 57.5t-67 182.5v198q0 126 66.5 183.5t190.5 57.5q90 0 151 -24t89.5 -69t20.5 -106q-2 -17 -13 -17h-117q-12 0 -12 17q0 25 -13 41.5t-38 25.5t-64 9q-62 0 -90 -22t-28 -72v-60h193q13 0 13 -13v-93q0 -13 -13 -13h-193v-61q0 -52 28 -75.5
t93 -23.5q42 0 67.5 10.5t37 28t11.5 37.5q0 18 12 18l117 1q6 0 9 -4.5t4 -16.5q4 -60 -24.5 -104.5t-86.5 -68.5t-143 -24z" />
    <glyph glyph-name="uni042D" unicode="&#x42d;" horiz-adv-x="627" 
d="M301 -12q-85 0 -142.5 24t-84.5 68.5t-23 104.5q1 12 4 16.5t9 4.5l117 -1q12 0 12 -18q0 -20 11.5 -37.5t37 -28t67.5 -10.5q65 0 93 25t28 85v50h-194q-12 0 -12 13v93q0 13 12 13h194v49q0 58 -27.5 81.5t-89.5 23.5q-38 0 -64 -9t-39 -25.5t-13 -41.5q0 -17 -12 -17
l-117 -1q-12 0 -13 17q-2 62 27.5 106.5t89 69t147.5 24.5q124 0 188.5 -57.5t64.5 -183.5v-198q0 -125 -69 -182.5t-202 -57.5z" />
    <glyph glyph-name="uni0406" unicode="&#x406;" horiz-adv-x="275" 
d="M79 0q-13 0 -13 13v629q0 13 13 13h117q13 0 13 -13v-629q0 -13 -13 -13h-117z" />
    <glyph glyph-name="uni0407" unicode="&#x407;" horiz-adv-x="275" 
d="M79 0q-13 0 -13 13v629q0 13 13 13h117q13 0 13 -13v-629q0 -13 -13 -13h-117zM39 708q-34 0 -52 17.5t-18 47.5v17q0 31 18 47.5t52 16.5q36 0 53.5 -16.5t17.5 -47.5v-17q0 -30 -17.5 -47.5t-53.5 -17.5zM238 708q-34 0 -52 17.5t-18 47.5v17q0 31 18 47.5t52 16.5
q35 0 53 -16.5t18 -47.5v-17q0 -30 -18 -47.5t-53 -17.5z" />
    <glyph glyph-name="uni0408" unicode="&#x408;" horiz-adv-x="285" 
d="M38 -159q-18 -3 -22 8l-30 95q-4 14 14 18q38 8 57 42t19 95v543q0 13 13 13h117q13 0 13 -13v-533q0 -121 -45 -187.5t-136 -80.5z" />
    <glyph glyph-name="uni040B" unicode="&#x40b;" horiz-adv-x="739" 
d="M217 0q-12 0 -12 13v518h-169q-12 0 -12 12v99q0 13 12 13h493q13 0 13 -13v-99q0 -12 -13 -12h-182v-170q37 33 82 53t100 20q76 0 115 -42t39 -127v-252q0 -13 -13 -13h-116q-13 0 -13 13v219q0 39 -16.5 58.5t-51.5 19.5q-32 0 -64 -16.5t-62 -45.5v-235
q0 -13 -13 -13h-117z" />
    <glyph glyph-name="uni042E" unicode="&#x42e;" horiz-adv-x="891" 
d="M574 -12q-127 0 -195 65t-68 189v171q0 124 68 189t195 65t195 -65t68 -189v-171q0 -124 -68 -189t-195 -65zM79 0q-13 0 -13 13v629q0 13 13 13h117q13 0 13 -13v-249h160v-122h-160v-258q0 -13 -13 -13h-117zM574 111q61 0 90.5 35t29.5 99v165q0 64 -29.5 99t-90.5 35
t-91 -35t-30 -99v-165q0 -64 30 -99t91 -35z" />
    <glyph glyph-name="uni042F" unicode="&#x42f;" horiz-adv-x="613" 
d="M28 0q-8 0 -10 4.5t1 10.5l106 172q12 21 26 43t28 40v2q-60 20 -90 65t-30 110q0 67 25.5 113.5t81 70.5t144.5 24h224q13 0 13 -13v-629q0 -13 -13 -13h-117q-13 0 -13 13v237h-89l-140 -241q-5 -9 -16 -9h-131zM315 362h89v172h-94q-59 0 -84 -22t-25 -68
q0 -30 12 -48t37 -26t65 -8z" />
    <glyph glyph-name="uni0402" unicode="&#x402;" horiz-adv-x="739" 
d="M492 -12q-9 -1 -13.5 1t-6.5 8l-29 95q-2 7 0.5 11.5t12.5 5.5q42 8 63.5 30.5t21.5 63.5v35q0 37 -16 54.5t-49 17.5q-34 0 -66 -16.5t-63 -45.5v-235q0 -13 -13 -13h-117q-12 0 -12 13v518h-169q-12 0 -12 12v99q0 13 12 13h488q12 0 12 -13v-99q0 -12 -12 -12h-177
v-170q37 33 84.5 53t99.5 20q75 0 113.5 -42t38.5 -127v-61q0 -92 -48.5 -148t-142.5 -68z" />
    <glyph glyph-name="uni04C0" unicode="&#x4c0;" horiz-adv-x="275" 
d="M79 0q-13 0 -13 13v629q0 13 13 13h117q13 0 13 -13v-629q0 -13 -13 -13h-117z" />
    <glyph glyph-name="uni04E2" unicode="&#x4e2;" horiz-adv-x="669" 
d="M79 0q-13 0 -13 13v629q0 13 13 13h113q12 0 12 -13v-240q0 -45 -1.5 -81.5t-4.5 -68t-6 -63.5h3q13 31 27.5 62t35 67t48.5 84l144 244q6 9 15 9h125q13 0 13 -13v-629q0 -13 -13 -13h-112q-12 0 -12 13v228q0 61 2.5 117t7.5 103h-3q-12 -28 -27 -56.5t-37 -67
t-56 -96.5l-134 -232q-5 -9 -15 -9h-125zM215 716q-13 0 -13 13v74q0 13 13 13h239q13 0 13 -13v-74q0 -13 -13 -13h-239z" />
    <glyph glyph-name="uni04EE" unicode="&#x4ee;" horiz-adv-x="590" 
d="M132 0q-7 0 -10 4.5t0 10.5l102 209l-212 416q-3 6 0 10.5t10 4.5h130q11 0 15 -9l86 -181q12 -26 22.5 -52t20.5 -57h3q11 31 22 57.5t24 53.5l87 179q4 9 15 9h127q7 0 10 -4.5t0 -10.5l-319 -631q-5 -9 -15 -9h-118zM178 716q-13 0 -13 13v74q0 13 13 13h239
q13 0 13 -13v-74q0 -13 -13 -13h-239z" />
    <glyph glyph-name="uni0414.loclRUS" horiz-adv-x="664" 
d="M117 40l-66 72q21 4 31.5 32t13.5 80l27 418q0 13 12 13h429q12 0 12 -13v-629q0 -13 -12 -13h-117q-13 0 -13 13v521h-179l-19 -301q-4 -62 -20 -102t-41.5 -61.5t-57.5 -29.5zM26 -140q-5 0 -9 4t-4 9v241q0 5 4 8.5t9 3.5h609q5 0 8.5 -3.5t3.5 -8.5v-241
q0 -5 -3.5 -9t-8.5 -4h-114q-5 0 -9 4t-4 9v127h-356v-127q0 -5 -3.5 -9t-9.5 -4h-113z" />
    <glyph glyph-name="uni041B.loclRUS" horiz-adv-x="648" 
d="M71 -12q-14 0 -28 2t-25 4q-12 2 -12 14v93q0 14 14 12q5 -1 12 -2t17 -1q24 0 38 23.5t18 84.5l26 424q1 13 12 13h426q12 0 12 -13v-629q0 -13 -12 -13h-117q-13 0 -13 13v521h-175l-22 -339q-7 -108 -46 -157.5t-125 -49.5z" />
    <glyph glyph-name="uni0424.loclRUS" horiz-adv-x="836" 
d="M332 30q-134 0 -206 64.5t-72 189.5v94q0 125 72 189t206 64h172q135 0 206.5 -64t71.5 -189v-94q0 -125 -71.5 -189.5t-206.5 -64.5h-172zM332 150h172q71 0 105 35.5t34 103.5v83q0 68 -34 103.5t-105 35.5h-172q-70 0 -104.5 -35.5t-34.5 -103.5v-83
q0 -68 34.5 -103.5t104.5 -35.5zM360 -37q-13 0 -13 13v89l4 32v460l-4 42v86q0 13 13 13h116q13 0 13 -13v-88l-4 -43v-455l4 -34v-89q0 -13 -13 -13h-116z" />
    <glyph glyph-name="uni0409.loclRUS" horiz-adv-x="955" 
d="M73 -12q-15 0 -29.5 1.5t-24.5 3.5q-13 3 -13 15v93q0 13 16 11q5 0 12 -1t14 -1q28 0 40.5 27t16.5 81l26 424q1 13 12 13h426q12 0 12 -13v-222h91q124 0 187.5 -53.5t63.5 -150.5q0 -104 -62.5 -160t-191.5 -56h-217q-13 0 -13 13v521h-175l-22 -339q-5 -75 -25 -121
t-55.5 -66t-88.5 -20zM582 122h86q55 0 84 23t29 70t-29 67.5t-83 20.5h-87v-181z" />
    <glyph glyph-name="uni0430" unicode="&#x430;" horiz-adv-x="511" 
d="M350 0q-6 0 -9 3.5t-5 9.5q-2 11 -5 33.5t-5 44.5l-10 42v201q0 38 -14.5 53.5t-51.5 15.5q-68 0 -65 -51q1 -13 -13 -13h-105q-12 0 -14 16q-6 73 46.5 112.5t155.5 39.5q105 0 152.5 -42.5t47.5 -134.5v-203q0 -32 1.5 -59.5t4.5 -53.5q2 -14 -13 -14h-98zM158 -12
q-60 0 -93 36.5t-33 103.5q0 52 19.5 84.5t65 51t121.5 24.5l93 9l-1 -76l-74 -7q-51 -5 -70.5 -20.5t-19.5 -49.5q0 -27 11 -39t33 -12q28 0 56 17t68 60l6 -83q-28 -29 -55.5 -51.5t-58 -35t-68.5 -12.5z" />
    <glyph glyph-name="uni0431" unicode="&#x431;" horiz-adv-x="550" 
d="M277 -12q-111 0 -167.5 53t-56.5 155v208q0 89 26.5 140t78.5 81q28 15 61.5 24.5t68.5 17.5t68 18t58 27q12 7 16 -7l27 -92q3 -12 -5 -17q-26 -19 -62.5 -28t-73 -14.5t-65.5 -18.5q-36 -16 -48 -44.5t-12 -67.5v-215q0 -53 20.5 -77t65.5 -24t66 26t21 72v59
q0 41 -17.5 59.5t-51.5 18.5q-33 0 -63.5 -19t-52.5 -48l2 107q18 20 43 38t56.5 29.5t67.5 11.5q71 0 113 -44t42 -135v-86q0 -101 -59.5 -154.5t-166.5 -53.5z" />
    <glyph glyph-name="uni0432" unicode="&#x432;" horiz-adv-x="547" 
d="M270 -12q-106 0 -161.5 51t-55.5 153v295q0 65 22 111.5t69 71.5t123 25q100 0 151 -39t51 -113q0 -58 -23 -95.5t-57 -55.5v-1q56 -9 83.5 -47t27.5 -97v-43q0 -106 -60 -161t-170 -55zM275 106q45 0 66.5 26.5t21.5 71.5v44q0 38 -18 55.5t-55 17.5q-14 0 -30.5 -2
t-34 -6.5t-35.5 -9.5v-100q0 -49 19.5 -73t65.5 -24zM190 395l52 10q42 9 66 34t24 71q0 37 -16.5 54t-50.5 17q-37 0 -56 -20t-19 -64v-102z" />
    <glyph glyph-name="uni0433" unicode="&#x433;" horiz-adv-x="489" 
d="M236 -12q-102 0 -150.5 31t-48.5 105q-1 53 23 88t76 56l113 46q31 12 42.5 23t11.5 29q0 20 -14 29t-48 9t-51 -10.5t-17 -32.5q0 -14 -12 -14h-102q-12 0 -14 15q-7 66 43.5 105.5t156.5 39.5q99 0 148 -34t49 -101q0 -54 -24.5 -85.5t-75.5 -51.5l-113 -46
q-31 -13 -42.5 -26t-10.5 -34q0 -24 17.5 -31.5t52.5 -6.5q39 0 57.5 12.5t18.5 38.5q0 15 11 15h102q7 0 10 -2.5t4 -11.5q7 -76 -42 -115.5t-171 -39.5z" />
    <glyph glyph-name="uni0453" unicode="&#x453;" horiz-adv-x="489" 
d="M236 -12q-102 0 -150.5 31t-48.5 105q-1 53 23 88t76 56l113 46q31 12 42.5 23t11.5 29q0 20 -14 29t-48 9t-51 -10.5t-17 -32.5q0 -14 -12 -14h-102q-12 0 -14 15q-7 66 43.5 105.5t156.5 39.5q99 0 148 -34t49 -101q0 -54 -24.5 -85.5t-75.5 -51.5l-113 -46
q-31 -13 -42.5 -26t-10.5 -34q0 -24 17.5 -31.5t52.5 -6.5q39 0 57.5 12.5t18.5 38.5q0 15 11 15h102q7 0 10 -2.5t4 -11.5q7 -76 -42 -115.5t-171 -39.5zM170 557q-14 0 -7 14l69 127q5 10 15 10h103q7 0 8.5 -5t-2.5 -10l-94 -128q-5 -8 -15 -8h-77z" />
    <glyph glyph-name="uni0491" unicode="&#x491;" horiz-adv-x="470" 
d="M106 -12q-29 0 -48.5 3t-40.5 11q-10 3 -10 12l2 84q0 5 4.5 8.5t11.5 -0.5q12 -4 24 -7t23 -3q16 0 25 12.5t11 52.5l10 147q6 93 40.5 140.5t116.5 47.5q35 0 51.5 10t21.5 26q3 10 3 20v18q0 10 12 10h102q12 0 12 -17q0 -47 -5 -76.5t-19 -46.5q-15 -19 -38.5 -30.5
t-75.5 -13.5q-43 -1 -61 -27t-23 -89l-10 -134q-6 -85 -39.5 -121.5t-99.5 -36.5z" />
    <glyph glyph-name="uni0434" unicode="&#x434;" horiz-adv-x="545" 
d="M265 -197q-105 0 -157.5 35.5t-46.5 106.5q2 16 15 16h105q12 0 12 -14q0 -20 19.5 -30t53.5 -10q49 0 66.5 21.5t17.5 62.5v32q0 13 0.5 27.5t1.5 27.5h-2q-38 -33 -77.5 -47.5t-82.5 -14.5q-74 0 -110 41t-36 129v118q0 103 52.5 153t163.5 50q44 0 80.5 -5t72.5 -10
t76 -8v-474q0 -73 -26 -119t-76 -67t-122 -21zM245 133q25 0 50 11.5t55 35.5v204q-18 4 -39.5 6.5t-41.5 2.5q-45 0 -65.5 -24.5t-20.5 -76.5v-78q0 -42 15 -61.5t47 -19.5z" />
    <glyph glyph-name="uni0435" unicode="&#x435;" horiz-adv-x="537" 
d="M271 -12q-116 0 -171.5 49.5t-55.5 146.5v115q0 102 55.5 155t169.5 53q111 0 167.5 -51t56.5 -150v-78q0 -13 -13 -13h-298v-30q0 -46 20.5 -68.5t67.5 -22.5q36 0 57 11.5t21 34.5q0 13 13 13h109q12 0 13 -13q2 -76 -51 -114t-161 -38zM182 299h175v5q0 50 -21 73
t-65 23q-47 0 -68 -23.5t-21 -73.5v-4z" />
    <glyph glyph-name="uni0450" unicode="&#x450;" horiz-adv-x="537" 
d="M271 -12q-116 0 -171.5 49.5t-55.5 146.5v115q0 102 55.5 155t169.5 53q111 0 167.5 -51t56.5 -150v-78q0 -13 -13 -13h-298v-30q0 -46 20.5 -68.5t67.5 -22.5q36 0 57 11.5t21 34.5q0 13 13 13h109q12 0 13 -13q2 -76 -51 -114t-161 -38zM182 299h175v5q0 50 -21 73
t-65 23q-47 0 -68 -23.5t-21 -73.5v-4zM261 562q-9 0 -15 8l-93 128q-4 5 -2.5 10t7.5 5h103q11 0 16 -10l69 -127q7 -14 -7 -14h-78z" />
    <glyph glyph-name="uni0451" unicode="&#x451;" horiz-adv-x="537" 
d="M271 -12q-116 0 -171.5 49.5t-55.5 146.5v115q0 102 55.5 155t169.5 53q111 0 167.5 -51t56.5 -150v-78q0 -13 -13 -13h-298v-30q0 -46 20.5 -68.5t67.5 -22.5q36 0 57 11.5t21 34.5q0 13 13 13h109q12 0 13 -13q2 -76 -51 -114t-161 -38zM182 299h175v5q0 50 -21 73
t-65 23q-47 0 -68 -23.5t-21 -73.5v-4zM167 565q-34 0 -52 17.5t-18 46.5v17q0 31 18 48t52 17q36 0 53.5 -17t17.5 -48v-17q0 -29 -17.5 -46.5t-53.5 -17.5zM366 565q-34 0 -52 17.5t-18 46.5v17q0 31 18 48t52 17q36 0 53.5 -17t17.5 -48v-17q0 -29 -17.5 -46.5
t-53.5 -17.5z" />
    <glyph glyph-name="uni0436" unicode="&#x436;" horiz-adv-x="773" 
d="M22 0q-8 0 -10 5t2 10l138 251l-123 213q-4 7 -2.5 11.5t9.5 4.5h127q12 0 16 -8l90 -173h49v356q0 13 13 13h111q13 0 13 -13v-356h49l93 173q4 8 15 8h125q8 0 9.5 -4.5t-1.5 -11.5l-124 -213l138 -251q4 -5 2 -10t-10 -5h-130q-11 0 -15 8l-102 196h-49v-191
q0 -13 -13 -13h-111q-13 0 -13 13v191h-51l-103 -196q-4 -8 -15 -8h-127z" />
    <glyph glyph-name="uni0437" unicode="&#x437;" horiz-adv-x="493" 
d="M231 -197q-69 0 -117 17.5t-70 55t-15 95.5q2 8 5.5 12t9.5 4h103q14 0 13 -16q-2 -31 16 -47.5t53 -16.5q44 0 66 21.5t22 67.5v40q0 38 -24 58t-76 20h-86q-5 0 -9 3.5t-4 9.5v85q0 5 4 9t9 4h75q48 0 71 22t23 61v25q0 37 -17 54t-55 17q-33 0 -48.5 -13.5
t-14.5 -37.5q1 -6 -2.5 -10t-9.5 -4h-105q-13 0 -14 16q-6 51 17.5 84.5t71.5 50.5t114 17q98 0 149.5 -39t51.5 -120v-28q0 -47 -24 -85.5t-68 -55.5v-3q55 -10 82 -46t27 -89v-37q0 -63 -23.5 -107.5t-73 -69t-127.5 -24.5z" />
    <glyph glyph-name="uni0438" unicode="&#x438;" horiz-adv-x="548" 
d="M193 -12q-68 0 -102.5 40.5t-34.5 123.5v330q0 13 13 13h113q13 0 13 -13v-302q0 -36 13 -54t40 -18q31 0 61.5 20t63.5 54l8 -93q-26 -26 -54.5 -49.5t-61.5 -37.5t-72 -14zM388 0q-12 0 -14 11q-4 17 -6 37t-4 41l-11 56v337q0 13 13 13h113q13 0 13 -13v-355
q0 -30 1.5 -58.5t4.5 -55.5q2 -13 -13 -13h-97z" />
    <glyph glyph-name="uni0439" unicode="&#x439;" horiz-adv-x="548" 
d="M193 -12q-68 0 -102.5 40.5t-34.5 123.5v330q0 13 13 13h113q13 0 13 -13v-302q0 -36 13 -54t40 -18q31 0 61.5 20t63.5 54l8 -93q-26 -26 -54.5 -49.5t-61.5 -37.5t-72 -14zM388 0q-12 0 -14 11q-4 17 -6 37t-4 41l-11 56v337q0 13 13 13h113q13 0 13 -13v-355
q0 -30 1.5 -58.5t4.5 -55.5q2 -13 -13 -13h-97zM275 555q-33 0 -59 9.5t-44 22.5t-28 23q-4 4 -4 13v74q0 8 4 10t10 -3q19 -17 50 -34t71 -17t71.5 16.5t48.5 34.5q6 6 10.5 3.5t4.5 -10.5v-74q0 -4 -1 -8.5t-5 -7.5q-11 -9 -28.5 -21t-42.5 -21.5t-58 -9.5z" />
    <glyph glyph-name="uni045D" unicode="&#x45d;" horiz-adv-x="548" 
d="M193 -12q-68 0 -102.5 40.5t-34.5 123.5v330q0 13 13 13h113q13 0 13 -13v-302q0 -36 13 -54t40 -18q31 0 61.5 20t63.5 54l8 -93q-26 -26 -54.5 -49.5t-61.5 -37.5t-72 -14zM388 0q-12 0 -14 11q-4 17 -6 37t-4 41l-11 56v337q0 13 13 13h113q13 0 13 -13v-355
q0 -30 1.5 -58.5t4.5 -55.5q2 -13 -13 -13h-97zM268 557q-9 0 -15 8l-93 128q-4 5 -2.5 10t7.5 5h103q11 0 16 -10l69 -127q7 -14 -7 -14h-78z" />
    <glyph glyph-name="uni043A" unicode="&#x43a;" horiz-adv-x="529" 
d="M526 15q4 -5 1.5 -10t-10.5 -5h-134q-11 0 -16 8l-122 194h-50v-189q0 -13 -13 -13h-113q-13 0 -13 13v657q0 13 13 13h113q13 0 13 -13v-355h52l111 172q5 8 15 8h130q8 0 10 -4.5t-2 -11.5l-146 -213z" />
    <glyph glyph-name="uni045C" unicode="&#x45c;" horiz-adv-x="529" 
d="M526 15q4 -5 1.5 -10t-10.5 -5h-134q-11 0 -16 8l-122 194h-50v-189q0 -13 -13 -13h-113q-13 0 -13 13v657q0 13 13 13h113q13 0 13 -13v-355h52l111 172q5 8 15 8h130q8 0 10 -4.5t-2 -11.5l-146 -213zM242 557q-14 0 -7 14l69 127q5 10 15 10h103q7 0 8.5 -5t-2.5 -10
l-94 -128q-5 -8 -15 -8h-77z" />
    <glyph glyph-name="uni043B" unicode="&#x43b;" horiz-adv-x="495" 
d="M13 0q-15 0 -10 15l165 467q4 13 17 13h125q12 0 17 -13l165 -467q5 -15 -10 -15h-123q-12 0 -15 11l-65 222q-9 32 -17 59.5t-15 59.5h-2q-7 -31 -14 -59.5t-17 -59.5l-65 -222q-3 -11 -14 -11h-122z" />
    <glyph glyph-name="uni043C" unicode="&#x43c;" horiz-adv-x="646" 
d="M62 0q-12 0 -12 13l9 469q0 13 12 13h114q9 0 15 -10l123 -246l123 246q5 10 15 10h113q13 0 13 -13l9 -469q0 -13 -12 -13h-103q-13 0 -13 13l-2 161q0 17 1.5 38.5t3 43.5t1.5 41h-3q-11 -25 -24.5 -52t-25.5 -48l-82 -142q-4 -7 -14 -7q-4 0 -7.5 1t-7.5 6l-81 142
q-12 21 -24.5 48t-25.5 52h-3q2 -19 3 -41t2 -43.5t1 -38.5l-2 -161q0 -13 -13 -13h-103z" />
    <glyph glyph-name="uni043D" unicode="&#x43d;" horiz-adv-x="549" 
d="M367 0q-13 0 -13 13v469q0 13 13 13h113q13 0 13 -13v-469q0 -13 -13 -13h-113zM69 0q-13 0 -13 13v469q0 13 13 13h113q13 0 13 -13v-469q0 -13 -13 -13h-113zM183 190v116h198v-116h-198z" />
    <glyph glyph-name="uni043E" unicode="&#x43e;" horiz-adv-x="549" 
d="M274 -12q-109 0 -169.5 52t-60.5 156v103q0 104 60.5 156t169.5 52q110 0 170 -52t60 -156v-103q0 -104 -60 -156t-170 -52zM274 106q48 0 69.5 24.5t21.5 78.5v77q0 54 -21.5 78.5t-69.5 24.5q-47 0 -69 -24.5t-22 -78.5v-77q0 -54 22 -78.5t69 -24.5z" />
    <glyph glyph-name="uni043F" unicode="&#x43f;" horiz-adv-x="560" 
d="M378 0q-13 0 -13 13v302q0 37 -14.5 54.5t-46.5 17.5t-62.5 -19t-64.5 -54l-8 93q26 28 54.5 50.5t62 36t74.5 13.5q71 0 107.5 -40t36.5 -124v-330q0 -13 -13 -13h-113zM69 0q-13 0 -13 13v355q0 30 -2 60t-4 52q-2 15 13 15h99q11 0 14 -11q2 -9 4 -23.5t4 -30.5t2 -29
l9 -50v-338q0 -13 -13 -13h-113z" />
    <glyph glyph-name="uni0440" unicode="&#x440;" horiz-adv-x="543" 
d="M321 -12q-34 0 -74.5 9t-67.5 25l-2 107q24 -13 51 -20t50 -7q41 0 60 26t19 75v103q0 41 -14.5 61t-46.5 20q-30 0 -59.5 -18t-64.5 -51l-8 95q26 25 54.5 46.5t60.5 34.5t72 13q73 0 109 -42t36 -131v-143q0 -106 -45.5 -154.5t-129.5 -48.5zM69 -185q-13 0 -13 13v544
q0 28 -1.5 56t-4.5 53q-1 14 13 14h99q11 0 14 -11q2 -9 4 -21.5t3.5 -26t0.5 -23.5l11 -59v-526q0 -13 -13 -13h-113z" />
    <glyph glyph-name="uni0441" unicode="&#x441;" horiz-adv-x="532" 
d="M273 -12q-110 0 -169.5 53.5t-59.5 153.5v105q0 100 59.5 153.5t169.5 53.5q72 0 121 -24t73.5 -63.5t20.5 -89.5q-1 -19 -13 -19h-106q-12 0 -12 15q0 31 -22 47t-60 16q-46 0 -69 -24t-23 -78v-79q0 -54 23 -77.5t68 -23.5q40 0 61 17t21 45q0 15 12 15h106
q12 0 13 -13q4 -83 -50.5 -133t-163.5 -50z" />
    <glyph glyph-name="uni0442" unicode="&#x442;" horiz-adv-x="836" 
d="M69 0q-13 0 -13 13v355q0 30 -1.5 58.5t-4.5 54.5q-2 14 13 14h99q11 0 13 -10q3 -13 5.5 -29.5t3.5 -32.5q35 35 74 59.5t91 24.5q53 0 82 -21t42 -63q36 36 76.5 60t91.5 24q70 0 104.5 -40t34.5 -124v-330q0 -13 -13 -13h-113q-13 0 -13 13v302q0 36 -13 54t-42 18
q-25 0 -48.5 -13.5t-49.5 -39.5v-321q0 -13 -13 -13h-113q-13 0 -13 13v302q0 36 -13 54t-43 18q-25 0 -48 -13.5t-50 -39.5v-321q0 -13 -13 -13h-113z" />
    <glyph glyph-name="uni0443" unicode="&#x443;" horiz-adv-x="521" 
d="M142 -185q-16 0 -10 15l65 173l-180 477q-6 15 9 15h124q11 0 14 -11l61 -182q10 -32 19 -67t17 -72h3q8 37 17 71.5t19 66.5l60 183q3 11 15 11h121q16 0 10 -15l-240 -655q-3 -10 -14 -10h-110z" />
    <glyph glyph-name="uni045E" unicode="&#x45e;" horiz-adv-x="521" 
d="M142 -185q-16 0 -10 15l65 173l-180 477q-6 15 9 15h124q11 0 14 -11l61 -182q10 -32 19 -67t17 -72h3q8 37 17 71.5t19 66.5l60 183q3 11 15 11h121q16 0 10 -15l-240 -655q-3 -10 -14 -10h-110zM262 555q-33 0 -59 9.5t-44 22.5t-28 23q-4 4 -4 13v74q0 8 4 10t10 -3
q19 -17 50 -34t71 -17t71.5 16.5t48.5 34.5q6 6 10.5 3.5t4.5 -10.5v-74q0 -4 -1 -8.5t-5 -7.5q-11 -9 -28.5 -21t-42.5 -21.5t-58 -9.5z" />
    <glyph glyph-name="uni0444" unicode="&#x444;" horiz-adv-x="721" 
d="M284 -12q-115 0 -177.5 53t-62.5 154v105q0 101 62.5 154t177.5 53h153q115 0 177.5 -53t62.5 -154v-105q0 -101 -62.5 -154t-177.5 -53h-153zM282 102h157q49 0 74 24.5t25 78.5v86q0 55 -25 79t-74 24h-157q-49 0 -74 -24t-25 -79v-86q0 -54 25 -78.5t74 -24.5z
M304 -185q-12 0 -12 13v194l3 36v375l-3 43v195q0 12 12 12h113q12 0 12 -12v-197l-4 -44v-370l4 -37v-195q0 -13 -12 -13h-113z" />
    <glyph glyph-name="uni0445" unicode="&#x445;" horiz-adv-x="521" 
d="M19 0q-8 0 -10.5 4.5t1.5 10.5l166 239l-155 225q-4 7 -1.5 11.5t9.5 4.5h131q11 0 16 -8l46 -75q10 -17 19.5 -36t18.5 -36h2q10 19 20.5 37.5t20.5 37.5l43 71q5 9 16 9h128q8 0 10.5 -4.5t-2.5 -11.5l-154 -223l167 -241q5 -6 2 -10.5t-10 -4.5h-131q-11 0 -16 8
l-44 71q-13 21 -26 43.5t-26 44.5h-1q-12 -21 -24.5 -43.5t-25.5 -43.5l-45 -72q-4 -8 -15 -8h-130z" />
    <glyph glyph-name="uni0447" unicode="&#x447;" horiz-adv-x="529" 
d="M347 0q-13 0 -13 13v178q-31 -28 -71 -48.5t-93 -20.5q-61 0 -94.5 38.5t-33.5 116.5v205q0 13 13 13h114q12 0 12 -13v-167q0 -38 13 -56t40 -18q28 0 53 14.5t47 37.5v189q0 13 13 13h113q13 0 13 -13v-469q0 -13 -13 -13h-113z" />
    <glyph glyph-name="uni0446" unicode="&#x446;" horiz-adv-x="573" 
d="M441 -125q-5 0 -9 4t-4 9v112h-31l95 116h55q6 0 9.5 -4t3.5 -9v-215q0 -5 -3.5 -9t-9.5 -4h-106zM193 -12q-68 0 -102.5 40.5t-34.5 123.5v330q0 13 13 13h113q13 0 13 -13v-302q0 -36 13 -54t40 -18q31 0 61.5 20t63.5 54l8 -93q-26 -26 -54.5 -49.5t-61.5 -37.5
t-72 -14zM388 0q-12 0 -14 11q-4 17 -6 37t-4 41l-11 56v337q0 13 13 13h113q13 0 13 -13v-355q0 -30 1.5 -58.5t4.5 -55.5q2 -13 -13 -13h-97z" />
    <glyph glyph-name="uni0448" unicode="&#x448;" horiz-adv-x="826" 
d="M191 -12q-67 0 -101 40t-34 124v330q0 13 13 13h113q13 0 13 -13v-302q0 -36 11.5 -54t40.5 -18q24 0 47 14t49 40v320q0 13 13 13h113q13 0 13 -13v-302q0 -36 11.5 -54t40.5 -18q23 0 46.5 14.5t49.5 39.5v320q0 13 13 13h114q12 0 12 -13v-355q0 -30 1.5 -59t4.5 -54
q2 -14 -12 -14h-100q-10 0 -13 10q-2 13 -4.5 29t-4.5 33q-35 -36 -73.5 -60t-89.5 -24q-52 0 -79 21t-41 63q-36 -37 -76.5 -60.5t-90.5 -23.5z" />
    <glyph glyph-name="uni0449" unicode="&#x449;" horiz-adv-x="850" 
d="M719 -125q-5 0 -9 4t-4 9v112h-32l96 116h55q6 0 9.5 -4t3.5 -9v-215q0 -5 -3.5 -9t-9.5 -4h-106zM191 -12q-67 0 -101 40t-34 124v330q0 13 13 13h113q13 0 13 -13v-302q0 -36 11.5 -54t40.5 -18q24 0 47 14t49 40v320q0 13 13 13h113q13 0 13 -13v-302q0 -36 11.5 -54
t40.5 -18q23 0 46.5 14.5t49.5 39.5v320q0 13 13 13h114q12 0 12 -13v-355q0 -30 1.5 -59t4.5 -54q2 -14 -12 -14h-100q-10 0 -13 10q-2 13 -4.5 29t-4.5 33q-35 -36 -73.5 -60t-89.5 -24q-52 0 -79 21t-41 63q-36 -37 -76.5 -60.5t-90.5 -23.5z" />
    <glyph glyph-name="uni045F" unicode="&#x45f;" horiz-adv-x="548" 
d="M188 -125q-5 0 -9 4t-4 9v198l126 3v-201q0 -5 -3.5 -9t-9.5 -4h-100zM193 -12q-68 0 -102.5 40.5t-34.5 123.5v330q0 13 13 13h113q13 0 13 -13v-302q0 -36 13 -54t40 -18q31 0 61.5 20t63.5 54l8 -93q-26 -26 -54.5 -49.5t-61.5 -37.5t-72 -14zM388 0q-12 0 -14 11
q-4 17 -6 37t-4 41l-11 56v337q0 13 13 13h113q13 0 13 -13v-355q0 -30 1.5 -58.5t4.5 -55.5q2 -13 -13 -13h-97z" />
    <glyph glyph-name="uni044C" unicode="&#x44c;" horiz-adv-x="523" 
d="M265 -12q-103 0 -156 45t-53 148v301q0 13 13 13h113q13 0 13 -13v-312q0 -37 19 -54t56 -17q35 0 56 19t21 53v38q0 29 -15 44t-46 15t-56 -16.5t-46 -45.5l-2 99q29 32 68 52.5t88 20.5q70 0 109 -38t39 -118v-49q0 -91 -58 -138t-163 -47z" />
    <glyph glyph-name="uni044A" unicode="&#x44a;" horiz-adv-x="591" 
d="M27 379q-13 0 -13 13v90q0 13 13 13h130v-116h-130zM333 -12q-103 0 -156 45t-53 148v301q0 13 13 13h113q13 0 13 -13v-312q0 -37 19 -54t55 -17t56.5 19t20.5 53v38q0 29 -14.5 44t-45.5 15t-56 -16.5t-46 -45.5l-3 99q30 32 69 52.5t88 20.5q70 0 109 -38t39 -118v-49
q0 -91 -58 -138t-163 -47z" />
    <glyph glyph-name="uni044B" unicode="&#x44b;" horiz-adv-x="763" 
d="M265 -12q-103 0 -156 45t-53 148v301q0 13 13 13h113q13 0 13 -13v-312q0 -37 19 -54t56 -17q35 0 56 19t21 53v38q0 29 -15 44t-46 15t-56 -16.5t-46 -45.5l-2 99q29 32 68 52.5t88 20.5q70 0 109 -38t39 -118v-49q0 -91 -58 -138t-163 -47zM581 0q-13 0 -13 13v469
q0 13 13 13h113q13 0 13 -13v-469q0 -13 -13 -13h-113z" />
    <glyph glyph-name="uni0459" unicode="&#x459;" horiz-adv-x="761" 
d="M509 -12q-60 0 -99 13t-62 43.5t-37 82.5l-33 107q-9 32 -16.5 59t-14.5 59h-2q-7 -31 -14 -59.5t-16 -59.5l-65 -222q-3 -11 -15 -11h-122q-15 0 -10 15l165 467q4 13 17 13h126q12 0 17 -13l69 -196q40 49 84.5 70.5t95.5 21.5q69 0 108.5 -38.5t39.5 -117.5v-49
q0 -91 -57.5 -138t-158.5 -47zM511 99q34 0 54 19t20 53v38q0 29 -14.5 44t-45.5 15q-28 0 -54 -16t-47 -44l20 -59q11 -30 26 -40t41 -10z" />
    <glyph glyph-name="uni045A" unicode="&#x45a;" horiz-adv-x="820" 
d="M69 0q-13 0 -13 13v469q0 13 13 13h113q13 0 13 -13v-176h180v-116h-180v-177q0 -13 -13 -13h-113zM563 -12q-103 0 -156 45t-53 148v301q0 13 13 13h113q13 0 13 -13v-312q0 -37 19 -54t55 -17t56.5 19t20.5 53v38q0 29 -15 44t-45 15q-31 0 -56.5 -16.5t-46.5 -45.5
l-2 99q30 32 68.5 52.5t88.5 20.5q69 0 108.5 -38t39.5 -118v-49q0 -91 -58.5 -138t-162.5 -47z" />
    <glyph glyph-name="uni0455" unicode="&#x455;" horiz-adv-x="475" 
d="M236 -12q-105 0 -152.5 39t-42.5 122q1 12 13 12h106q12 0 12 -12q0 -31 15.5 -46t48.5 -15q35 0 52 11t17 34q0 18 -12 29.5t-40 23.5l-115 49q-50 21 -72 51.5t-22 79.5q0 71 46.5 106t144.5 35q101 0 149.5 -36.5t48.5 -108.5q0 -13 -13 -13h-105q-13 0 -13 16
q0 21 -15.5 31.5t-45.5 10.5t-44 -10t-14 -31q0 -15 10 -24t38 -21l114 -48q52 -21 75.5 -52t23.5 -82q0 -75 -53 -113t-155 -38z" />
    <glyph glyph-name="uni0454" unicode="&#x454;" horiz-adv-x="526" 
d="M264 -12q-108 0 -164 51.5t-56 149.5v121q0 96 56.5 146.5t162.5 50.5q75 0 124 -22.5t72.5 -59.5t18.5 -81q-1 -16 -14 -16h-106q-12 0 -12 14q0 21 -21 33.5t-57 12.5q-43 0 -64 -19.5t-21 -64.5v-21h144q10 0 10 -10v-50q0 -10 -10 -10h-144v-23q0 -45 20 -64t65 -19
q40 0 60.5 13.5t20.5 33.5q0 14 13 14h106q12 0 14 -17q6 -47 -17.5 -83.5t-73.5 -58t-127 -21.5z" />
    <glyph glyph-name="uni044D" unicode="&#x44d;" horiz-adv-x="522" 
d="M261 -12q-76 0 -127 21.5t-75 58t-19 83.5q2 17 14 17h106q13 0 13 -14q0 -23 21 -35t61 -12q46 0 65 19t19 64v23h-144q-10 0 -10 10v50q0 10 10 10h144v21q0 46 -19.5 65t-62.5 19q-38 0 -59.5 -12.5t-21.5 -33.5q0 -14 -12 -14h-106q-13 0 -14 16q-4 44 20 81t75 59.5
t124 22.5q106 0 160.5 -50.5t54.5 -146.5v-121q0 -98 -54 -149.5t-163 -51.5z" />
    <glyph glyph-name="uni0456" unicode="&#x456;" horiz-adv-x="251" 
d="M69 0q-13 0 -13 13v469q0 13 13 13h113q13 0 13 -13v-469q0 -13 -13 -13h-113zM126 559q-37 0 -57 19t-20 50v18q0 33 20 51.5t57 18.5q38 0 57.5 -18.5t19.5 -51.5v-18q0 -31 -19.5 -50t-57.5 -19z" />
    <glyph glyph-name="uni0457" unicode="&#x457;" horiz-adv-x="251" 
d="M69 0q-13 0 -13 13v469q0 13 13 13h113q13 0 13 -13v-469q0 -13 -13 -13h-113zM25 560q-34 0 -52 17.5t-18 46.5v17q0 31 18 48t52 17q36 0 53.5 -17t17.5 -48v-17q0 -29 -17.5 -46.5t-53.5 -17.5zM224 560q-34 0 -52 17.5t-18 46.5v17q0 31 18 48t52 17q36 0 53.5 -17
t17.5 -48v-17q0 -29 -17.5 -46.5t-53.5 -17.5z" />
    <glyph glyph-name="uni0458" unicode="&#x458;" horiz-adv-x="252" 
d="M64 -191q-8 -6 -15 3l-67 77q-4 5 -3.5 10.5t5.5 8.5q24 18 40 42.5t24 57t8 76.5v398q0 6 4 9.5t9 3.5h113q6 0 9.5 -3.5t3.5 -9.5v-399q0 -68 -12.5 -118.5t-41 -88.5t-77.5 -67zM127 559q-37 0 -57 19t-20 50v18q0 33 20 51.5t57 18.5q38 0 57.5 -18.5t19.5 -51.5v-18
q0 -31 -19.5 -50t-57.5 -19z" />
    <glyph glyph-name="uni045B" unicode="&#x45b;" horiz-adv-x="566" 
d="M9 550q-13 0 -13 12v64q0 13 13 13h274q12 0 12 -13v-64q0 -12 -12 -12h-221h-53zM383 0q-13 0 -13 13v302q0 36 -14 54t-46 18t-64 -19.5t-62 -52.5l-8 93q26 28 54 50t61.5 35.5t74.5 13.5q71 0 107 -40t36 -124v-330q0 -13 -12 -13h-114zM75 0q-13 0 -13 13v657
q0 13 13 13h113q13 0 13 -13v-657q0 -13 -13 -13h-113z" />
    <glyph glyph-name="uni044E" unicode="&#x44e;" horiz-adv-x="755" 
d="M56 418v252q0 13 13 13h113q13 0 13 -13v-252h-139zM487 -12q-105 0 -164 53.5t-59 154.5v103q0 101 59 154.5t164 53.5t164.5 -53.5t59.5 -154.5v-103q0 -101 -59.5 -154.5t-164.5 -53.5zM69 0q-13 0 -13 13v469q0 13 13 13h113q13 0 13 -13v-178h129v-111h-129v-180
q0 -13 -13 -13h-113zM487 107q43 0 64 24.5t21 76.5v79q0 52 -21 76t-64 24q-42 0 -63 -24t-21 -76v-79q0 -52 21 -76.5t63 -24.5z" />
    <glyph glyph-name="uni044F" unicode="&#x44f;" horiz-adv-x="526" 
d="M31 0q-8 0 -10.5 4.5t1.5 10.5l69 104q11 18 23.5 35.5t25.5 35.5v1q-49 17 -72 52.5t-23 87.5t20.5 88.5t63.5 56t111 19.5h217q13 0 13 -13v-469q0 -13 -13 -13h-113q-13 0 -13 13v158h-59l-100 -162q-5 -9 -16 -9h-125zM255 268h76v121h-83q-39 0 -54.5 -16t-15.5 -45
q0 -32 19.5 -46t57.5 -14z" />
    <glyph glyph-name="uni0452" unicode="&#x452;" horiz-adv-x="566" 
d="M378 -191q-8 -6 -15 3l-67 77q-4 5 -3.5 10.5t5.5 8.5q24 18 40 42t24 57t8 77v231q0 36 -14 54t-46 18q-27 0 -54 -14.5t-55 -40.5v-319q0 -13 -13 -13h-113q-13 0 -13 13v537h-53q-13 0 -13 12v64q0 13 13 13h53v31q0 13 13 13h113q13 0 13 -13v-31h82q13 0 13 -13v-64
q0 -12 -13 -12h-82v-117q35 34 75 54t90 20q71 0 107 -40t36 -124v-260q0 -68 -12.5 -118.5t-41 -88.5t-77.5 -67z" />
    <glyph glyph-name="uni04CF" unicode="&#x4cf;" horiz-adv-x="251" 
d="M69 0q-13 0 -13 13v657q0 13 13 13h113q13 0 13 -13v-657q0 -13 -13 -13h-113z" />
    <glyph glyph-name="uni04E3" unicode="&#x4e3;" horiz-adv-x="548" 
d="M193 -12q-68 0 -102.5 40.5t-34.5 123.5v330q0 13 13 13h113q13 0 13 -13v-302q0 -36 13 -54t40 -18q31 0 61.5 20t63.5 54l8 -93q-26 -26 -54.5 -49.5t-61.5 -37.5t-72 -14zM388 0q-12 0 -14 11q-4 17 -6 37t-4 41l-11 56v337q0 13 13 13h113q13 0 13 -13v-355
q0 -30 1.5 -58.5t4.5 -55.5q2 -13 -13 -13h-97zM165 570q-13 0 -13 13v75q0 12 13 12h219q13 0 13 -12v-75q0 -13 -13 -13h-219z" />
    <glyph glyph-name="uni04EF" unicode="&#x4ef;" horiz-adv-x="521" 
d="M142 -185q-16 0 -10 15l65 173l-180 477q-6 15 9 15h124q11 0 14 -11l61 -182q10 -32 19 -67t17 -72h3q8 37 17 71.5t19 66.5l60 183q3 11 15 11h121q16 0 10 -15l-240 -655q-3 -10 -14 -10h-110zM152 570q-13 0 -13 13v75q0 12 13 12h219q13 0 13 -12v-75q0 -13 -13 -13
h-219z" />
    <glyph glyph-name="uni0432.loclRUS" horiz-adv-x="507" 
d="M69 0q-13 0 -13 13v469q0 13 13 13h201q95 0 140 -30t45 -91q0 -43 -18.5 -71.5t-59.5 -40.5v-2q45 -9 71.5 -37t26.5 -73q0 -53 -20 -86.5t-65.5 -48.5t-122.5 -15h-198zM191 101h84q36 0 51 15t15 41q0 24 -16 37.5t-51 13.5h-83v-107zM191 296h76q34 0 45.5 14.5
t11.5 37.5q0 21 -12.5 32.5t-47.5 11.5h-73v-96z" />
    <glyph glyph-name="uni0433.loclRUS" horiz-adv-x="389" 
d="M69 0q-13 0 -13 13v469q0 13 13 13h293q13 0 13 -13v-90q0 -13 -13 -13h-167v-366q0 -13 -13 -13h-113z" />
    <glyph glyph-name="uni0453.loclRUS" horiz-adv-x="389" 
d="M69 0q-13 0 -13 13v469q0 13 13 13h293q13 0 13 -13v-90q0 -13 -13 -13h-167v-366q0 -13 -13 -13h-113zM141 557q-14 0 -7 14l69 127q5 10 15 10h103q7 0 8.5 -5t-2.5 -10l-94 -128q-5 -8 -15 -8h-77z" />
    <glyph glyph-name="uni0491.loclRUS" horiz-adv-x="390" 
d="M69 0q-13 0 -13 13v469q0 13 13 13h174v117q0 5 4 9t9 4h107q6 0 9.5 -4t3.5 -9v-220q0 -13 -13 -13h-168v-366q0 -13 -13 -13h-113z" />
    <glyph glyph-name="uni0434.loclRUS" horiz-adv-x="563" 
d="M350 45v334h-119l-12 -163q-4 -48 -15 -79.5t-27 -50t-38 -30.5l-91 51q12 3 18.5 11.5t10 26t5.5 46.5l22 291q1 13 13 13h359q13 0 13 -13v-437h-139zM143 0l-94 116h424l-56 -116h-274zM431 -125q-5 0 -8.5 4t-3.5 9v112h-32l95 116h56q5 0 8.5 -4t3.5 -9v-215
q0 -5 -3.5 -9t-8.5 -4h-107zM126 -125h-106q-5 0 -9 4t-4 9v215q0 5 4 9t9 4h55l96 -116h-32v-112q0 -5 -3.5 -9t-9.5 -4z" />
    <glyph glyph-name="uni0436.loclRUS" horiz-adv-x="773" 
d="M22 0q-8 0 -10 5t2 10l138 251l-123 213q-4 7 -2.5 11.5t9.5 4.5h127q12 0 16 -8l90 -173h49v168q0 13 13 13h111q13 0 13 -13v-168h49l93 173q4 8 15 8h125q8 0 9.5 -4.5t-1.5 -11.5l-124 -213l138 -251q4 -5 2 -10t-10 -5h-130q-11 0 -15 8l-102 196h-49v-191
q0 -13 -13 -13h-111q-13 0 -13 13v191h-51l-103 -196q-4 -8 -15 -8h-127z" />
    <glyph glyph-name="uni0437.loclRUS" horiz-adv-x="509" 
d="M244 -12q-117 0 -168.5 36.5t-42.5 110.5q3 16 15 16h102q12 0 12 -13q0 -24 21 -33.5t63 -9.5q50 0 69 13t19 43q0 26 -18.5 38t-56.5 12h-76q-12 0 -12 13v67q0 13 12 13h58q47 0 64.5 14.5t17.5 41.5q0 22 -17 36t-60 14q-40 0 -58.5 -12.5t-18.5 -34.5q0 -14 -12 -14
h-101q-14 0 -15 16q-5 71 45.5 111.5t164.5 40.5q103 0 153 -34t50 -104q0 -44 -23.5 -73.5t-55.5 -39.5v-3q42 -7 67.5 -34.5t25.5 -71.5q0 -80 -56 -119.5t-168 -39.5z" />
    <glyph glyph-name="uni0438.loclRUS" horiz-adv-x="549" 
d="M69 0q-13 0 -13 13v469q0 13 13 13h105q13 0 13 -13v-175q0 -32 -3.5 -63.5t-5.5 -63.5h2q16 29 31.5 59t32.5 59l114 188q5 9 17 9h105q13 0 13 -13v-469q0 -13 -13 -13h-105q-13 0 -13 13v166q0 32 3 64l6 64h-2q-14 -26 -29 -51.5t-29 -51.5l-120 -196q-4 -8 -14 -8
h-108z" />
    <glyph glyph-name="uni0439.loclRUS" horiz-adv-x="549" 
d="M69 0q-13 0 -13 13v469q0 13 13 13h105q13 0 13 -13v-175q0 -32 -3.5 -63.5t-5.5 -63.5h2q16 29 31.5 59t32.5 59l114 188q5 9 17 9h105q13 0 13 -13v-469q0 -13 -13 -13h-105q-13 0 -13 13v166q0 32 3 64l6 64h-2q-14 -26 -29 -51.5t-29 -51.5l-120 -196q-4 -8 -14 -8
h-108zM275 555q-33 0 -59 9.5t-44 22.5t-28 23q-4 4 -4 13v74q0 8 4 10t10 -3q19 -17 50 -34t71 -17t71.5 16.5t48.5 34.5q6 6 10.5 3.5t4.5 -10.5v-74q0 -4 -1 -8.5t-5 -7.5q-11 -9 -28.5 -21t-42.5 -21.5t-58 -9.5z" />
    <glyph glyph-name="uni045D.loclRUS" horiz-adv-x="549" 
d="M69 0q-13 0 -13 13v469q0 13 13 13h105q13 0 13 -13v-175q0 -32 -3.5 -63.5t-5.5 -63.5h2q16 29 31.5 59t32.5 59l114 188q5 9 17 9h105q13 0 13 -13v-469q0 -13 -13 -13h-105q-13 0 -13 13v166q0 32 3 64l6 64h-2q-14 -26 -29 -51.5t-29 -51.5l-120 -196q-4 -8 -14 -8
h-108zM269 557q-9 0 -15 8l-93 128q-4 5 -2.5 10t7.5 5h103q11 0 16 -10l69 -127q7 -14 -7 -14h-78z" />
    <glyph glyph-name="uni043A.loclRUS" horiz-adv-x="529" 
d="M69 0q-13 0 -13 13v469q0 13 13 13h113q13 0 13 -13v-167h52l111 172q5 8 15 8h130q8 0 10 -4.5t-2 -11.5l-146 -213l161 -251q4 -5 1.5 -10t-10.5 -5h-134q-11 0 -16 8l-122 194h-50v-189q0 -13 -13 -13h-113z" />
    <glyph glyph-name="uni045C.loclRUS" horiz-adv-x="529" 
d="M69 0q-13 0 -13 13v469q0 13 13 13h113q13 0 13 -13v-167h52l111 172q5 8 15 8h130q8 0 10 -4.5t-2 -11.5l-146 -213l161 -251q4 -5 1.5 -10t-10.5 -5h-134q-11 0 -16 8l-122 194h-50v-189q0 -13 -13 -13h-113zM181 557q-14 0 -7 14l69 127q5 10 15 10h103q7 0 8.5 -5
t-2.5 -10l-94 -128q-5 -8 -15 -8h-77z" />
    <glyph glyph-name="uni043B.loclRUS" horiz-adv-x="532" 
d="M60 -12q-26 0 -51 5q-11 3 -11 14v87q0 13 12 12q8 -1 13.5 -1.5t11.5 -0.5q21 0 30.5 19t13.5 73l22 286q1 13 13 13h349q13 0 13 -13v-469q0 -13 -13 -13h-113q-13 0 -13 13v366h-114l-17 -215q-6 -94 -40 -135t-106 -41z" />
    <glyph glyph-name="uni043F.loclRUS" horiz-adv-x="547" 
d="M69 0q-13 0 -13 13v469q0 13 13 13h408q13 0 13 -13v-469q0 -13 -13 -13h-113q-13 0 -13 13v366h-156v-366q0 -13 -13 -13h-113z" />
    <glyph glyph-name="uni0442.loclRUS" horiz-adv-x="455" 
d="M171 0q-13 0 -13 13v366h-131q-13 0 -13 13v90q0 13 13 13h401q13 0 13 -13v-90q0 -13 -13 -13h-131v-366q0 -13 -13 -13h-113z" />
    <glyph glyph-name="uni0446.loclRUS" horiz-adv-x="567" 
d="M69 0q-13 0 -13 13v469q0 13 13 13h113q13 0 13 -13v-366h152v366q0 13 13 13h113q13 0 13 -13v-469q0 -13 -13 -13h-404zM436 -125q-6 0 -9.5 4t-3.5 9v112h-32l95 116h56q5 0 9 -4t4 -9v-215q0 -5 -4 -9t-9 -4h-106z" />
    <glyph glyph-name="uni0448.loclRUS" horiz-adv-x="801" 
d="M69 0q-13 0 -13 13v469q0 13 13 13h113q13 0 13 -13v-366h136v366q0 13 13 13h113q13 0 13 -13v-366h136v366q0 13 13 13h113q13 0 13 -13v-469q0 -13 -13 -13h-663z" />
    <glyph glyph-name="uni0449.loclRUS" horiz-adv-x="826" 
d="M694 -125q-5 0 -9 4t-4 9v112h-31l95 116h55q6 0 9.5 -4t3.5 -9v-215q0 -5 -3.5 -9t-9.5 -4h-106zM69 0q-13 0 -13 13v469q0 13 13 13h113q13 0 13 -13v-366h136v366q0 13 13 13h113q13 0 13 -13v-366h136v366q0 13 13 13h113q13 0 13 -13v-469q0 -13 -13 -13h-663z" />
    <glyph glyph-name="uni045F.loclRUS" horiz-adv-x="543" 
d="M218 -125q-5 0 -9 4t-4 9v112h-136q-13 0 -13 13v469q0 13 13 13h113q13 0 13 -13v-366h152v366q0 13 13 13h113q13 0 13 -13v-469q0 -13 -13 -13h-136v-112q0 -5 -3.5 -9t-8.5 -4h-107z" />
    <glyph glyph-name="uni044C.loclRUS" horiz-adv-x="509" 
d="M69 0q-13 0 -13 13v469q0 13 13 13h113q13 0 13 -13v-137h78q100 0 150 -41t50 -123q0 -91 -50.5 -136t-154.5 -45h-199zM195 109h67q41 0 59 17.5t18 52.5q0 32 -19.5 46.5t-60.5 14.5h-64v-131z" />
    <glyph glyph-name="uni044A.loclRUS" horiz-adv-x="577" 
d="M27 379q-13 0 -13 13v90q0 13 13 13h133v-116h-133zM137 0q-13 0 -13 13v469q0 13 13 13h113q13 0 13 -13v-137h78q100 0 150 -41t50 -123q0 -91 -50.5 -136t-154.5 -45h-199zM263 109h67q40 0 58.5 17.5t18.5 52.5q0 32 -19.5 46.5t-60.5 14.5h-64v-131z" />
    <glyph glyph-name="uni044B.loclRUS" horiz-adv-x="752" 
d="M69 0q-13 0 -13 13v469q0 13 13 13h113q13 0 13 -13v-137h78q100 0 150 -41t50 -123q0 -91 -50.5 -136t-154.5 -45h-199zM195 109h67q41 0 59 17.5t18 52.5q0 32 -19.5 46.5t-60.5 14.5h-64v-131zM569 0q-13 0 -13 13v469q0 13 13 13h113q13 0 13 -13v-469q0 -13 -13 -13
h-113z" />
    <glyph glyph-name="uni0459.loclRUS" horiz-adv-x="784" 
d="M60 -12q-26 0 -51 5q-11 3 -11 14v81q0 14 12 12q6 -1 12.5 -1h12.5q23 0 32 21.5t12 70.5l22 291q1 13 13 13h349q13 0 13 -13v-143h72q105 0 152.5 -40.5t47.5 -122.5q0 -86 -50 -131t-154 -45h-194q-13 0 -13 13v366h-114l-17 -215q-7 -99 -42.5 -137.5t-103.5 -38.5z
M476 109h62q36 0 56.5 16.5t20.5 49.5q0 32 -19 46t-62 14h-58v-126z" />
    <glyph glyph-name="uni045A.loclRUS" horiz-adv-x="801" 
d="M63 0q-13 0 -13 13v469q0 13 13 13h114q12 0 12 -13v-148h159v148q0 13 13 13h113q13 0 13 -13v-148h78q105 0 152.5 -39.5t47.5 -118.5q0 -86 -50.5 -131t-153.5 -45h-200q-13 0 -13 13v207h-159v-207q0 -13 -12 -13h-114zM487 109h67q37 0 57 16.5t20 49.5
q0 30 -18 42.5t-62 12.5h-64v-121z" />
    <glyph glyph-name="uni044E.loclRUS" horiz-adv-x="749" 
d="M481 -12q-105 0 -164 53.5t-59 154.5v103q0 101 59 154.5t164 53.5t164.5 -53.5t59.5 -154.5v-103q0 -101 -59.5 -154.5t-164.5 -53.5zM63 0q-13 0 -13 13v469q0 13 13 13h114q12 0 12 -13v-178h129v-111h-129v-180q0 -13 -12 -13h-114zM481 107q43 0 64 24.5t21 76.5v79
q0 52 -21 76t-64 24q-42 0 -63 -24t-21 -76v-79q0 -52 21 -76.5t63 -24.5z" />
    <glyph glyph-name="uni04E3.loclRUS" horiz-adv-x="549" 
d="M69 0q-13 0 -13 13v469q0 13 13 13h105q13 0 13 -13v-175q0 -32 -3.5 -63.5t-5.5 -63.5h2q16 29 31.5 59t32.5 59l114 188q5 9 17 9h105q13 0 13 -13v-469q0 -13 -13 -13h-105q-13 0 -13 13v166q0 32 3 64l6 64h-2q-14 -26 -29 -51.5t-29 -51.5l-120 -196q-4 -8 -14 -8
h-108zM165 570q-13 0 -13 13v75q0 12 13 12h219q13 0 13 -12v-75q0 -13 -13 -13h-219z" />
    <glyph glyph-name="uni0430.sc" horiz-adv-x="551" 
d="M10 0q-14 0 -9 13l185 522q4 9 14 9h149q10 0 13 -9l188 -522q4 -13 -9 -13h-125q-9 0 -13 9l-93 291q-11 35 -20 67t-15 64h-3q-6 -32 -14.5 -63.5t-19.5 -68.5l-90 -289q-3 -10 -14 -10h-124zM155 97l23 108h190l24 -108h-237z" />
    <glyph glyph-name="uni0431.sc" horiz-adv-x="536" 
d="M72 0q-12 0 -12 12v520q0 12 12 12h355q11 0 11 -12v-90q0 -11 -11 -11h-233v-87h87q111 0 164.5 -39.5t53.5 -124.5q0 -94 -54 -137t-171 -43h-202zM194 110h71q49 0 73 16t24 55q0 37 -22 51t-71 14h-75v-136z" />
    <glyph glyph-name="uni0432.sc" horiz-adv-x="541" 
d="M72 0q-12 0 -12 12v520q0 12 12 12h196q110 0 163 -34t53 -99q0 -50 -22 -78.5t-69 -43.5v-3q56 -9 85 -41.5t29 -86.5q0 -84 -56 -121t-182 -37h-197zM197 109h77q52 0 74 14.5t22 47.5q0 32 -23 46t-74 14h-76v-122zM197 324h70q43 0 61 14t18 44q0 27 -19 39.5
t-65 12.5h-65v-110z" />
    <glyph glyph-name="uni0433.sc" horiz-adv-x="423" 
d="M72 0q-12 0 -12 12v520q0 12 12 12h323q11 0 11 -12v-93q0 -10 -11 -10h-198v-417q0 -12 -13 -12h-112z" />
    <glyph glyph-name="uni0453.sc" horiz-adv-x="423" 
d="M72 0q-12 0 -12 12v520q0 12 12 12h323q11 0 11 -12v-93q0 -10 -11 -10h-198v-417q0 -12 -13 -12h-112zM167 596q-17 0 -8 15l59 109q5 9 16 9h92q8 0 9.5 -4.5t-2.5 -10.5l-84 -110q-5 -8 -15 -8h-67z" />
    <glyph glyph-name="uni0491.sc" horiz-adv-x="423" 
d="M274 448v210q0 11 12 11h108q12 0 12 -11v-210h-132zM72 0q-12 0 -12 12v520q0 12 12 12h323q11 0 11 -12v-93q0 -10 -11 -10h-198v-417q0 -12 -13 -12h-112z" />
    </font>
</defs>
</svg>
